↑↓torrent.by
Поиск
Логин:  Регистрация
Пароль:

Зловещий свет / Prey for the Devil (2022) BDRemux 1080p | D, P

download Скачать торрент-файл   magnet Магнитная ссылка Размер: 19.38 GB Добавлен: 2024-03-23 11:00
Пиры будут получены из сети DHT
Последний сидер был замечен 2024-03-23 14:01
Информация о фильме Название: Зловещий свет Оригинальное название: Prey for the Devil Год выхода: 2022 Жанр: Ужасы Режиссер: Даниэль Штамм В ролях: Жаклин Байерс, Дебора Жечева, Кристиан Наварро, Пози Тейлор, Колин Сэлмон, Николас Ральф, Бен Кросс, Вирджиния Мэдсен, Лиза Пэлфри, Койна Русева, Кора Кирк, Элизабет Гибсон, Велизар Бинев, Яна Маринова, Кит Бартлетт О фильме: Когда сильно возросло число случаев одержимости, Ватикан стал открывать по всему миру школы экзорцизма, в которых не только учат изгонять дьявола, но и наблюдают пациентов — на самом деле человеком завладели злые силы или он болен психически. Молодая монахиня Энн ухаживает за такими людьми и очень хочет обучаться, так как много лет назад её мать убил вселившийся в неё демон. Несмотря на протесты старшей монахини, девушка получает разрешение посещать лекции опытного экзорциста отца Куинна и даже проявляет себя на практических занятиях, но пока не догадывается, с насколько хитрым демоном ей вскоре предстоит сразиться. Страна: США Студия: Confluence Productions, Gold Circle Films, Lionsgate Продолжительность: 01:33:09 Перевод 1: Профессиональный (дублированный) | Мосфильм-Мастер Перевод 2: Профессиональный (многоголосый, закадровый) | TVShows Файл Формат: MKV Качество: BDRemux 1080p Видео: MPEG-4 AVC, 1920x1080 (16:9), 23.976 fps, ~ 24.5 Mbps Аудио 1: AC3 Dolby Digital, 5.1 ch, 48 kHz, 448 kbps | DUB, Мосфильм-Мастер Аудио 2: AC3 Dolby Digital, 2.0 ch, 48 kHz, 192 kbps | MVO, TVShows Аудио 3: Dolby TrueHD + Atmos, 7.1 ch, 48 kHz, 3905 kbps | Original Аудио 4: AC3 Dolby Digital, 5.1 ch, 48 kHz, 640 kbps | Original Субтитры: Английские (Full, SDH)
[+] ПримечаниеДубляж записан с канала Киноужас HD. Спасибо SOFCJ. Русские форсированные субтитры были убраны, так как, в обоих переводах все необходимые надписи озвучены.
[+] Скриншоты
[+] Инфо-файлGeneral Complete name : Prey.for.the.Devil.2022.BDRemux.1080p.mkv Format : Matroska Format version : Version 4 File size : 19.4 GiB Duration : 1 h 33 min Overall bit rate mode : Variable Overall bit rate : 29.8 Mb/s Frame rate : 23.976 FPS Encoded date : 2024-03-22 12:46:19 UTC Writing application : mkvmerge v82.0 ('I'm The President') 64-bit Writing library : libebml v1.4.5 + libmatroska v1.7.1 Cover : Yes Attachments : cover.jpg Video ID : 1 ID in the original source medi : 4113 (0x1011) Format : AVC Format/Info : Advanced Video Codec Format profile : High@L4.1 Format settings : CABAC / 4 Ref Frames Format settings, CABAC : Yes Format settings, Reference fra : 4 frames Codec ID : V_MPEG4/ISO/AVC Duration : 1 h 33 min Bit rate mode : Variable Bit rate : 24.5 Mb/s Maximum bit rate : 36.3 Mb/s Width : 1 920 pixels Height : 1 080 pixels Display aspect ratio : 16:9 Frame rate mode : Constant Frame rate : 23.976 (24000/1001) FPS Color space : YUV Chroma subsampling : 4:2:0 Bit depth : 8 bits Scan type : Progressive Bits/(Pixel*Frame) : 0.493 Time code of first frame : 00:59:59:00 Stream size : 16.0 GiB (82%) Language : English Default : Yes Forced : No Audio #1 ID : 2 Format : AC-3 Format/Info : Audio Coding 3 Commercial name : Dolby Digital Codec ID : A_AC3 Duration : 1 h 33 min Bit rate mode : Constant Bit rate : 448 kb/s Channel(s) : 6 channels Channel layout : L R C LFE Ls Rs Sampling rate : 48.0 kHz Frame rate : 31.250 FPS (1536 SPF) Compression mode : Lossy Stream size : 299 MiB (2%) Title : Dub Language : Russian Service kind : Complete Main Default : Yes Forced : No Audio #2 ID : 3 Format : AC-3 Format/Info : Audio Coding 3 Commercial name : Dolby Digital Codec ID : A_AC3 Duration : 1 h 33 min Bit rate mode : Constant Bit rate : 192 kb/s Channel(s) : 2 channels Channel layout : L R Sampling rate : 48.0 kHz Frame rate : 31.250 FPS (1536 SPF) Compression mode : Lossy Stream size : 128 MiB (1%) Title : MVO Language : Russian Service kind : Complete Main Default : No Forced : No Audio #3 ID : 4 ID in the original source medi : 4352 (0x1100) Format : MLP FBA 16-ch Format/Info : Meridian Lossless Packing FBA with 16-channel presentation Commercial name : Dolby TrueHD with Dolby Atmos Codec ID : A_TRUEHD Duration : 1 h 33 min Bit rate mode : Variable Bit rate : 3 905 kb/s Maximum bit rate : 7 512 kb/s Channel(s) : 8 channels Channel layout : L R C LFE Ls Rs Lb Rb Sampling rate : 48.0 kHz Frame rate : 1 200.000 FPS (40 SPF) Compression mode : Lossless Stream size : 2.54 GiB (13%) Title : Original Language : English Default : No Forced : No Original source medium : Blu-ray Number of dynamic objects : 11 Bed channel count : 1 channel Bed channel configuration : LFE Audio #4 ID : 5 ID in the original source medi : 4352 (0x1100) Format : AC-3 Format/Info : Audio Coding 3 Commercial name : Dolby Digital Codec ID : A_AC3 Duration : 1 h 33 min Bit rate mode : Constant Bit rate : 640 kb/s Channel(s) : 6 channels Channel layout : L R C LFE Ls Rs Sampling rate : 48.0 kHz Frame rate : 31.250 FPS (1536 SPF) Compression mode : Lossy Stream size : 426 MiB (2%) Title : Original Compatibility Track Language : English Service kind : Complete Main Default : No Forced : No Text #1 ID : 6 Format : UTF-8 Codec ID : S_TEXT/UTF8 Codec ID/Info : UTF-8 Plain Text Duration : 1 h 25 min Bit rate : 37 b/s Frame rate : 0.163 FPS Count of elements : 835 Stream size : 23.2 KiB (0%) Title : Full Language : English Default : No Forced : No Text #2 ID : 7 Format : UTF-8 Codec ID : S_TEXT/UTF8 Codec ID/Info : UTF-8 Plain Text Duration : 1 h 26 min Bit rate : 49 b/s Frame rate : 0.226 FPS Count of elements : 1175 Stream size : 31.2 KiB (0%) Title : SDH Language : English Default : No Forced : No Menu 00:00:00.000 : en:Chapter 1 00:03:38.509 : en:Chapter 2 00:11:02.995 : en:Chapter 3 00:17:43.395 : en:Chapter 4 00:23:15.727 : en:Chapter 5 00:31:54.621 : en:Chapter 6 00:35:29.127 : en:Chapter 7 00:42:59.326 : en:Chapter 8 00:47:39.523 : en:Chapter 9 00:55:41.796 : en:Chapter 10 00:59:15.051 : en:Chapter 11 01:04:20.398 : en:Chapter 12 01:07:03.352 : en:Chapter 13 01:11:11.976 : en:Chapter 14 01:20:41.086 : en:Chapter 15 01:24:56.508 : en:Chapter 16

Всего файлов в раздаче: 1 
Prey.for.the.Devil.2022.BDRemux.1080p.mkv19.38 GB

Похожие раздачи по запросу - Зловещий
2024-03-25 magnet Зловещий свет / Prey for the Devil (2022) HDRip-AVC от ExKinoRay | D 744.05 MB ↑ 0 ↓ 0
2024-03-24 magnet Зловещий свет / Prey for the Devil (2022) BDRip 1080p от DoMiNo & селезень | D 7.23 GB ↑ 0 ↓ 0
2024-03-24 magnet Зловещий свет / Prey for the Devil (2022) BDRip от MegaPeer | D 1.46 GB ↑ 0 ↓ 0
2024-03-23 magnet Зловещий свет / Prey for the Devil (2022) BDRip 720p от ExKinoRay | D, P 3.64 GB ↑ 0 ↓ 0

Комментарии


Зарегистрируйтесь чтобы добавить комментарий
Торрент клиент
byTorrent - программа для загрузки торрент-файлов.

Скачать byTorrent.exe (1,5 МБ)

Скачать byTorrent.zip (0,6 МБ)

Поддержи torrent.by
российских рублей
(300 российских рублей это 4$)

Обратная связь rss

End game ©