↑↓torrent.by
Поиск
Логин:  Регистрация
Пароль:

Дураки умирают по пятницам (1990) DVDRip от New-Team

download Скачать торрент-файл   magnet Магнитная ссылка Размер: 1.46 GB Добавлен: 2024-03-23 11:00
Пиры будут получены из сети DHT
Последний сидер был замечен 2024-03-25 12:46
Страна: СССР, Болгария Производство: Киностудия БОЯНА, Болгария Фильм, Госкино, Кинофонд СССР, Паритет, Сектор-Ф Жанр: боевик, криминал Год выпуска: 1990 Продолжительность: 01:30:44 Перевод: не требуется Оригинальная аудиодорожка: русский Cубтитры: нет Режиссер: Рудольф Фрунтов В ролях: Василий Мищенко, Оксана Фандера, Игорь Янковский, Маргарита Сергеечева, Михаил Козаков, Римма Маркова, Андрей Гусев, Сергей Чурбаков, Наталья Позднякова, Евгений Дегтяренко... Подробнее об актерах Описание: Офицер милиции Андрей выходит из тюрьмы, где провел три года, осужденный по ложному обвинению. Придя, в гости к старому другу, он неожиданно натыкается на его труп. Приходится вновь спасаться от милиции. События нарастают стремительно. Андрей понимает, что за ним идет настоящая охота. Кому опять понадобилась его жизнь и свобода? На этот вопрос не может ответить ни его старый друг, майор милиции, ни Яна — внезапно ворвавшаяся в его жизнь любовь и надежда… Исходник: DVD5 R5 Тип релиза: DVDRip Контейнер: AVI Видео: 688x512 (4:3), 25,000 кадров/сек, XviD 73 ~ 1844 кбит/сек, 0.209 бит/пиксель Аудио: 48 кГц, Dolby Digital AC3 5.1, 448 кбит/сек Раздача от:
[+] MediaInfo Общее Полное имя : Дураки умирают по пятницам.1990.DVDRip__by_AVP_Studio.avi Формат : AVI Формат/Информация : Audio Video Interleave Размер файла : 1,46 Гбайт Продолжительность : 1 ч. 30 м. Общий поток : 2302 Кбит/сек Программа кодирования : VirtualDubModRus 1.5.10.2 (build 2542/release) Библиотека кодирования : VirtualDubMod build 2542/release Видео Идентификатор : 0 Формат : MPEG-4 Visual Профиль формата : Advanced Simple@L5 Параметр BVOP формата : 1 Параметр QPel формата : Нет Параметр GMC формата : Без точки перехода Параметр матрицы формата : Выборочная Идентификатор кодека : XVID Идентификатор кодека/Подсказка : XviD Продолжительность : 1 ч. 30 м. Битрейт : 1844 Кбит/сек Ширина : 688 пикселей Высота : 512 пикселей Соотношение сторон : 4:3 Частота кадров : 25,000 кадров/сек Цветовое пространство : YUV Субдискретизация насыщенности : 4:2:0 Битовая глубина : 8 бит Тип развёртки : Прогрессивная Метод сжатия : С потерями Бит/(Пиксели*Кадры) : 0.209 Размер потока : 1,17 Гбайт (80%) Библиотека кодирования : XviD 73 Аудио Идентификатор : 1 Формат : AC-3 Формат/Информация : Audio Coding 3 Расширение режима : CM (complete main) Параметр Endianness формата : Big Идентификатор кодека : 2000 Продолжительность : 1 ч. 30 м. Вид битрейта : Постоянный Битрейт : 448 Кбит/сек Каналы : 6 каналов Расположение каналов : Front: L C R, Side: L R, LFE Частота : 48,0 КГц Битовая глубина : 16 бит Метод сжатия : С потерями Размер потока : 291 Мбайт (19%) Выравнивание : Разделение по промежуткам Продолжительность промежутка : 40 мс. (1,00 видеокадр) Время предзагрузки промежутка : 500 мс
[+] Скриншоты

Всего файлов в раздаче: 1 
Дураки умирают по пятницам.1990.DVDRip_[New-team]_by_AVP_Studio.avi1.46 GB

Похожие раздачи по запросу - Дураки
2023-12-06 magnet Дураки умирают по пятницам (1990) WEB-DLRip 720p от New-Team 2.18 GB ↑ 0 ↓ 0

Комментарии


Зарегистрируйтесь чтобы добавить комментарий
Торрент клиент
byTorrent - программа для загрузки торрент-файлов.

Скачать byTorrent.exe (1,5 МБ)

Скачать byTorrent.zip (0,6 МБ)

Поддержи torrent.by
российских рублей
(300 российских рублей это 4$)

Обратная связь rss

End game ©