↑↓torrent.by
Поиск
Логин:  Регистрация
Пароль:

Лео / Leo (2023) WEB-DL-HEVC 1080p | HDR | Dolby Vision Profile 8 | D, P

download Скачать торрент-файл   magnet Магнитная ссылка Размер: 3.91 GB Раздают: 0 Качают: 2 Добавлен: 2024-03-23 11:00
Пиры будут получены из сети DHT
Последний сидер был замечен 2024-04-14 20:31
Название: Лео Оригинальное название: Leo Год выпуска: 2023 Производство: Австралия, США / Netflix, Happy Madison Productions, Animal Logic, Screen NSW Жанр: Мультфильм, комедия, семейный Перевод: Неофициальный дублированный, профессиональный многоголосый Продолжительность: 01:46:47 Режиссёры: Роберт Марианетти, Роберт Шмигель, Дэвид Уочтенхейм В ролях: Адам Сэндлер, Билл Бёрр, Сесили Стронг, Джейсон Александер, Роб Шнайдер, Эллисон Стронг, Джо Кой, Сэди Сэндлер, Санни Сэндлер, Култер Ибанез Описание: Забавный рассказ про старенькую 74-летнею ящерицу из школьного террариума во Флориде, которая решает осуществить дерзкий побег со своим лучшим другом-черепахой, после нескольких десятков лет заточения. Качество видео: WEB-DL-HEVC 1080p HDR DV Формат видео: MKV Видео: MPEG-H/HEVC, 1920х1080, 2 710 kb/s, 0.054 бит/(Пиксели*Кадры), 24,000 fps Аудио 1: AC-3, 6 ch, 48.0 kHz, 384 kb/s - Русский MVO (TVShows) Аудио 2: AC-3, 6 ch, 48.0 kHz, 640 kb/s - Русский дублированный, неофициальный (Red Head Sound) Аудио 3: E-AC-3 JOC, 6 ch, 48.0 kHz, 768 kb/s - Украинский дублированный (Le Doyen) Аудио 4: E-AC-3 JOC, 6 ch, 48.0 kHz, 768 kb/s - Английский Субтитры: Русские (Full), украинские (Forced, Full), английские (Full)
[+] Mediainfo General Unique ID : 218641822894203819512065248405771190936 (0xA47CE2253D6A1B0A03A6D15EAD070298) Complete name : E:DownloadLeo (2023) WEB-DL 1080p HDR.mkv Format : Matroska Format version : Version 4 File size : 3.91 GiB Duration : 1 h 46 min Overall bit rate : 5 237 kb/s Frame rate : 24.000 FPS Movie name : Лео / Leo (2023) Encoded date : 2024-03-22 08:24:18 UTC Writing application : mkvmerge v68.0.0 ('The Curtain') 64-bit Writing library : libebml v1.4.2 + libmatroska v1.6.4 Cover : Yes Attachments : Cover.jpg Video ID : 1 Format : HEVC Format/Info : High Efficiency Video Coding Format profile : Main 10@L4@Main HDR format : Dolby Vision, Version 1.0, Profile 8.1, dvhe.08.03, BL+RPU, HDR10 compatible / SMPTE ST 2086, Version HDR10, HDR10 compatible Codec ID : V_MPEGH/ISO/HEVC Duration : 1 h 46 min Bit rate : 2 710 kb/s Width : 1 920 pixels Height : 1 080 pixels Display aspect ratio : 16:9 Frame rate mode : Constant Frame rate : 24.000 FPS Color space : YUV Chroma subsampling : 4:2:0 (Type 2) Bit depth : 10 bits Bits/(Pixel*Frame) : 0.054 Stream size : 2.02 GiB (52%) Title : Leo Language : English Default : Yes Forced : No Color range : Limited Color primaries : BT.2020 Transfer characteristics : PQ Matrix coefficients : BT.2020 non-constant Mastering display color primar : Display P3 Mastering display luminance : min: 0.0001 cd/m2, max: 1000 cd/m2 Maximum Content Light Level : 927 cd/m2 Maximum Frame-Average Light Le : 269 cd/m2 Audio #1 ID : 2 Format : AC-3 Format/Info : Audio Coding 3 Commercial name : Dolby Digital Codec ID : A_AC3 Duration : 1 h 46 min Bit rate mode : Constant Bit rate : 384 kb/s Channel(s) : 6 channels Channel layout : L R C LFE Ls Rs Sampling rate : 48.0 kHz Frame rate : 31.250 FPS (1536 SPF) Compression mode : Lossy Stream size : 293 MiB (7%) Title : MVO (TV Shows) Language : Russian Service kind : Complete Main Default : Yes Forced : No Audio #2 ID : 3 Format : AC-3 Format/Info : Audio Coding 3 Commercial name : Dolby Digital Codec ID : A_AC3 Duration : 1 h 46 min Bit rate mode : Constant Bit rate : 640 kb/s Channel(s) : 6 channels Channel layout : L R C LFE Ls Rs Sampling rate : 48.0 kHz Frame rate : 31.250 FPS (1536 SPF) Compression mode : Lossy Stream size : 489 MiB (12%) Title : Дубляж (Red Head Sound) Language : Russian Service kind : Complete Main Default : No Forced : No Audio #3 ID : 4 Format : E-AC-3 JOC Format/Info : Enhanced AC-3 with Joint Object Coding Commercial name : Dolby Digital Plus with Dolby Atmos Codec ID : A_EAC3 Duration : 1 h 46 min Bit rate mode : Constant Bit rate : 768 kb/s Channel(s) : 6 channels Channel layout : L R C LFE Ls Rs Sampling rate : 48.0 kHz Frame rate : 31.250 FPS (1536 SPF) Compression mode : Lossy Stream size : 587 MiB (15%) Title : Дубляж (Le Doyen) Language : Ukrainian Service kind : Complete Main Default : No Forced : No Complexity index : 16 Number of dynamic objects : 15 Bed channel count : 1 channel Bed channel configuration : LFE Audio #4 ID : 5 Format : E-AC-3 JOC Format/Info : Enhanced AC-3 with Joint Object Coding Commercial name : Dolby Digital Plus with Dolby Atmos Codec ID : A_EAC3 Duration : 1 h 41 min Bit rate mode : Constant Bit rate : 768 kb/s Channel(s) : 6 channels Channel layout : L R C LFE Ls Rs Sampling rate : 48.0 kHz Frame rate : 31.250 FPS (1536 SPF) Compression mode : Lossy Stream size : 559 MiB (14%) Title : Original Language : English Service kind : Complete Main Default : No Forced : No Complexity index : 16 Number of dynamic objects : 15 Bed channel count : 1 channel Bed channel configuration : LFE Text #1 ID : 6 Format : UTF-8 Codec ID : S_TEXT/UTF8 Codec ID/Info : UTF-8 Plain Text Duration : 1 h 41 min Bit rate : 119 b/s Frame rate : 0.248 FPS Count of elements : 1509 Stream size : 89.1 KiB (0%) Title : Full Language : Russian Default : No Forced : No Text #2 ID : 7 Format : UTF-8 Codec ID : S_TEXT/UTF8 Codec ID/Info : UTF-8 Plain Text Duration : 1 h 21 min Bit rate : 2 b/s Frame rate : 0.008 FPS Count of elements : 38 Stream size : 1.74 KiB (0%) Title : Forced Language : Ukrainian Default : No Forced : No Text #3 ID : 8 Format : UTF-8 Codec ID : S_TEXT/UTF8 Codec ID/Info : UTF-8 Plain Text Duration : 1 h 41 min Bit rate : 118 b/s Frame rate : 0.249 FPS Count of elements : 1513 Stream size : 88.0 KiB (0%) Title : Full Language : Ukrainian Default : No Forced : No Text #4 ID : 9 Format : UTF-8 Codec ID : S_TEXT/UTF8 Codec ID/Info : UTF-8 Plain Text Duration : 1 h 41 min Bit rate : 100 b/s Frame rate : 0.307 FPS Count of elements : 1866 Stream size : 74.8 KiB (0%) Title : Full Language : English Default : No Forced : No
[+] Скриншоты

Всего файлов в раздаче: 1 
Leo (2023) WEB-DL 1080p HDR.mkv3.91 GB

Похожие раздачи по запросу - Лео
2024-04-08 magnet Лео Сухов - Собрание сочинений (2020-2024) FB2 41.18 MB ↑ 0 ↓ 0
2024-03-22 magnet Лео / Leo (2023) WEB-DLRip от MegaPeer | D | Red Head Sound 1.46 GB ↑ 0 ↓ 0
2024-03-22 magnet Лео / Leo (2023) WEB-DLRip-AVC от DoMiNo & селезень | D, P | Red Head Sound, TVShows 1.83 GB ↑ 0 ↓ 0
2024-03-22 magnet Лео / Leo (2023) WEB-DL 1080p от Scarabey | D | Red Head Sound 5.07 GB ↑ 0 ↓ 0
2024-03-21 magnet Лео / Leo (2023) WEB-DL-HEVC 1080p | HDR | Dolby Vision Profile 8 | D, P 3.57 GB ↑ 0 ↓ 0
2024-03-19 magnet Лео / Leo (2023) WEB-DL 1080p от ExKinoRay | D, P | Red Head Sound, TVShows 4.55 GB ↑ 0 ↓ 0
2023-12-14 magnet Лео / Leo (2023) WEB-DL 1080p от New-Team | P | TVShows 4.40 GB ↑ 0 ↓ 0

Комментарии


Зарегистрируйтесь чтобы добавить комментарий
Торрент клиент
byTorrent - программа для загрузки торрент-файлов.

Скачать byTorrent.exe (1,5 МБ)

Скачать byTorrent.zip (0,6 МБ)

Поддержи torrent.by
российских рублей
(300 российских рублей это 4$)

Обратная связь rss

End game ©