↑↓torrent.by
Поиск
Логин:  Регистрация
Пароль:

Алла-Такси [01-16 из 16] (2022-2023) WEBRip 720p от ivandubskoj

download Скачать торрент-файл   magnet Магнитная ссылка Размер: 14.32 GB Добавлен: 2024-03-23 11:00
Пиры будут получены из сети DHT
Последний сидер был замечен 2024-04-04 19:18
Оригинальное название: Алла-Такси Год выхода: 2022-2023 Жанр: Драма, мелодрама Выпущено: Россия, Кинокомпания Русское, Студия Весна, ВГТРК Режиссер: Рауф Кубаев В ролях: Светлана Колпакова, Александр Михайлов, Роман Мадянов, Ольга Прокофьева, Андрей Чернышов, Марат Башаров, Евгений Миллер, Юлия Такшина, Марина Кондратьева, Мирослава Михайлова, Денис Давыдов (V), Ольга Дегтярева, Анастасия Ровенских, Владислав Здоров О сериале: Алла живет в деревне, она давно замужем за дальнобойщиком Васей и воспитывает сына Юру. Уличив мужа в измене, героиня уходит от него. Но свекровь Зинаида, могущественная начальница местной администрации, не позволяет Алле забрать сына и запрещает ей видеться с ним. Оставшись без семьи и без средств к существованию, Алла устраивается на работу в таксопарк. В суровом мужском коллективе ее воспринимают в штыки – раньше женщины здесь не работали даже мойщицами. Но и среди таксистов находится тот, кто встает на защиту героини – Сергей Проскурин. Сможет ли Алла заслужить доверие коллег? Сумеет ли вернуть сына? И кто же растопит ее сердце: бывший муж, вознамерившийся вновь завоевать Аллу, или её скромный защитник Проскурин? Качество: WEBRip 720p Видео: MPEG-4 AVC, ~ 2200 Кбит/с, 1280x720, 25 кадр/с Аудио: AC3, 2 ch, 192 Кбит/с Продолжительность: 16 x ~ 00:52:00 Язык: Русский Субтитры: Нет
[+] Скриншоты
[+] MediaInfoGeneral Unique ID: 253057075850467060832239769635507443633 (0xBE61051ED90354838E7F22D885D897B1) Complete name: Alla-Taxi.s01.2022.WEB-DL.720p.by.ivandubskoje02.mkv Format: Matroska File size: 923 MiB Duration: 52mn 13s Overall bit rate: 2 471 Kbps Encoded date: UTC 2024-03-07 19:21:16 Writing application: mkvmerge v7.8.0 ('River Man') 32bit built on Apr 3 2015 12:11:22 Writing library: libebml v1.3.1 + libmatroska v1.4.2 Video ID: 1 Format: AVC Format/Info: Advanced Video Codec Format profile: High@L3.1 Format settings, CABAC: Yes Format settings, ReFrames: 4 frames Codec ID: V_MPEG4/ISO/AVC Duration: 52mn 13s Bit rate mode: Variable Bit rate: 2 230 Kbps Maximum bit rate: 6 925 Kbps Width: 1 280 pixels Height: 720 pixels Display aspect ratio: 16:9 Frame rate: 25.000 fps Color space: YUV Chroma subsampling: 4:2:0 Bit depth: 8 bits Scan type: Progressive Bits/(Pixel*Frame): 0.097 Stream size: 833 MiB (90%) Language: Russian Color primaries: BT.709-5, BT.1361, IEC 61966-2-4, SMPTE RP177 Transfer characteristics: BT.709-5, BT.1361 Matrix coefficients: BT.709-5, BT.1361, IEC 61966-2-4 709, SMPTE RP177 Audio ID: 2 Format: AC-3 Format/Info: Audio Coding 3 Mode extension: CM (complete main) Codec ID: A_AC3 Duration: 52mn 13s Bit rate mode: Constant Bit rate: 192 Kbps Channel(s): 2 channels Channel positions: Front: L R Sampling rate: 48.0 KHz Bit depth: 16 bits Compression mode: Lossy Stream size: 71.7 MiB (8%) Language: Russian
Релиз от: ivandubskoj

Всего файлов в раздаче: 16 
e01.mkv745.69 MB
e02.mkv923.15 MB
e03.mkv925.89 MB
e04.mkv919.12 MB
e05.mkv938.14 MB
e06.mkv927.18 MB
e07.mkv932.49 MB
e08.mkv926.53 MB
e09.mkv924.02 MB
e10.mkv926.19 MB
Показать все файлы

Похожие раздачи по запросу - Алла-Такси
2024-04-01 magnet Алла Пугачёва - Я летала [Unofficial Release, Remastered] (2024) FLAC 1.64 GB ↑ 0 ↓ 0
2024-03-29 magnet Алла Пугачёва - P.S [Live Album] (2024) FLAC 640.30 MB ↑ 0 ↓ 0
2024-03-29 magnet Владимир Кузьмин и Алла Пугачёва - Две звезды [Vinyl-Rip] (2023) FLAC 944.59 MB ↑ 0 ↓ 0
2024-03-25 magnet Алла-Такси [01-16 из 16] (2022-2023) WEBRip от Generalfilm | КПК 3.10 GB ↑ 0 ↓ 0
2024-03-22 magnet Алла-Такси [S01] (2022-2023) WEBRip 1080p от Files-x 29.16 GB ↑ 0 ↓ 0
2024-03-22 magnet Алла-Такси [01-16 из 16] (2022) WEBRip от Files-x 10.44 GB ↑ 0 ↓ 0
2024-03-22 magnet Алла-Такси [S01] (2022) WEBRip-AVC от Files-х 10.45 GB ↑ 0 ↓ 0

Комментарии


Зарегистрируйтесь чтобы добавить комментарий
Торрент клиент
byTorrent - программа для загрузки торрент-файлов.

Скачать byTorrent.exe (1,5 МБ)

Скачать byTorrent.zip (0,6 МБ)

Поддержи torrent.by
российских рублей
(300 российских рублей это 4$)

Обратная связь rss

End game ©