↑↓torrent.by
Поиск
Логин:  Регистрация
Пароль:

Вечеринка на вылет / Murder Party (2022) BDRip-AVC от DoMiNo & селезень | D

download Скачать торрент-файл   magnet Магнитная ссылка Размер: 2.75 GB Добавлен: 2024-03-23 11:00
Пиры будут получены из сети DHT
Последний сидер был замечен 2024-03-31 23:15
Информация о фильме Название: Вечеринка на вылет Оригинальное название: Murder Party Год выхода: 2022 Жанр: Комедия, детектив Режиссер: Николя Плескоф В ролях: Алис Поль, Эдди Митчелл, Миу-Миу, Пабло Поли, Гюстав Керверн, Сара Штерн, Паскаль Арбийо, Забу Брайтман, Адриен Гионне, Люсьен Жан-Батист О фильме: Блестящему архитектору Жанне предстоит отреставрировать роскошный особняк семьи Джагер, которая владеет империей по продаже настольных игр. Когда во время вечеринки кто-то убивает главу семьи, девушке приходится сыграть во все знаменитые игры, чтобы найти злодея. Страна: Франция Студия: Auvergne Rhône-Alpes Cinéma, Canal+ , Ciné, Cofinova 17 Продолжительность: 01:43:13 Перевод: Дублированный | Pride Production Файл Формат: Matroska Качество: BDRip-AVC Видео: 960x576 at 24.000 fps, x264@L4.1, ~3048 kbps Аудио 1: AC3, 6 ch, ~384 kbps - | Русский | Аудио 2: AC3, 6 ch, ~384 kbps - | Французский | Субтитры: Отсутствуют ***Рип от: -=DoMiNo=-
[+] M/Ix264 : frame I:1249 Avg QP:15.78 size: 99149 x264 : frame P:27601 Avg QP:16.77 size: 31397 x264 : frame B:119804 Avg QP:18.44 size: 11431 General Unique ID : 198437286124907723991552238222109538205 (0x9549A19297F1972CDD005E94B937779D) Complete name : L:Murder.Party.2022.BDRip.x264.seleZen.mkv Format : Matroska Format version : Version 4 File size : 2.75 GiB Duration : 1 h 43 min Overall bit rate : 3 818 kb/s Movie name : Murder.Party.2022.BDRip.x264.seleZen Encoded date : UTC 2022-07-06 10:23:24 Writing application : mkvmerge v63.0.0 ('Everything') 64-bit Writing library : libebml v1.4.2 + libmatroska v1.6.4 Cover : Yes Attachments : cover.jpg / small_cover.jpg Video ID : 1 Format : AVC Format/Info : Advanced Video Codec Format profile : High@L4.1 Format settings : CABAC / 12 Ref Frames Format settings, CABAC : Yes Format settings, Reference : 12 frames Codec ID : V_MPEG4/ISO/AVC Duration : 1 h 43 min Bit rate : 3 048 kb/s Width : 960 pixels Height : 576 pixels Display aspect ratio : 5:3 Frame rate mode : Constant Frame rate : 24.000 FPS Color space : YUV Chroma subsampling : 4:2:0 Bit depth : 8 bits Scan type : Progressive Bits/(Pixel*Frame) : 0.230 Stream size : 2.20 GiB (80%) Title : -=DoMiNo=- Writing library : x264 core 164 by -=DoMiNo=- Encoding settings : cabac=1 / ref=12 / deblock=1:-2:-2 / analyse=0x3:0x133 / me=umh / subme=11 / psy=1 / psy_rd=1.03:0.05 / mixed_ref=1 / me_range=32 / chroma_me=1 / trellis=2 / 8x8dct=1 / cqm=0 / deadzone=21,11 / fast_pskip=0 / chroma_qp_offset=-3 / threads=17 / lookahead_threads=4 / sliced_threads=0 / nr=0 / decimate=1 / interlaced=0 / bluray_compat=0 / constrained_intra=0 / bframes=12 / b_pyramid=2 / b_adapt=2 / b_bias=0 / direct=1 / weightb=1 / open_gop=0 / weightp=2 / keyint=250 / keyint_min=24 / scenecut=40 / intra_refresh=0 / rc_lookahead=60 / rc=crf / mbtree=0 / crf=18.0 / qcomp=0.70 / qpmin=0 / qpmax=69 / qpstep=4 / vbv_maxrate=50000 / vbv_bufsize=62500 / crf_max=0.0 / nal_hrd=none / filler=0 / ip_ratio=1.35 / pb_ratio=1.25 / aq=3:0.80 Language : French Default : Yes Forced : No Color range : Limited Color primaries : BT.709 Transfer characteristics : BT.709 Matrix coefficients : BT.709 Audio #1 ID : 2 Format : AC-3 Format/Info : Audio Coding 3 Commercial name : Dolby Digital Codec ID : A_AC3 Duration : 1 h 43 min Bit rate mode : Constant Bit rate : 384 kb/s Channel(s) : 6 channels Channel layout : L R C LFE Ls Rs Sampling rate : 48.0 kHz Frame rate : 31.250 FPS (1536 SPF) Compression mode : Lossy Stream size : 283 MiB (10%) Title : Dub Language : Russian Service kind : Complete Main Default : Yes Forced : Yes Audio #2 ID : 3 Format : AC-3 Format/Info : Audio Coding 3 Commercial name : Dolby Digital Codec ID : A_AC3 Duration : 1 h 43 min Bit rate mode : Constant Bit rate : 384 kb/s Channel(s) : 6 channels Channel layout : L R C LFE Ls Rs Sampling rate : 48.0 kHz Frame rate : 31.250 FPS (1536 SPF) Compression mode : Lossy Stream size : 284 MiB (10%) Title : Original Language : French Service kind : Complete Main Default : No Forced : No Menu 00:00:00.000 : :Chapter 01 00:08:06.417 : :Chapter 02 00:18:29.375 : :Chapter 03 00:38:05.792 : :Chapter 04 00:47:09.917 : :Chapter 05 00:51:57.250 : :Chapter 06 00:58:35.667 : :Chapter 07 01:07:43.167 : :Chapter 08 01:12:41.833 : :Chapter 09 01:21:16.333 : :Chapter 10 01:30:33.167 : :Chapter 11 01:38:07.167 : :Chapter 12
Релиз: Присоединяйся к: Кликай на баннеры.

Всего файлов в раздаче: 1 
Murder.Party.2022.BDRip.x264.seleZen.mkv2.75 GB

Похожие раздачи по запросу - Вечеринка
2023-12-04 magnet DJ YasmI - Пионерская Вечеринка [70] (2023) MP3 186.93 MB ↑ 0 ↓ 0
2023-10-17 magnet DJ YasmI - Пионерская Вечеринка [69] (2023) MP3 165.26 MB ↑ 0 ↓ 0

Комментарии


Зарегистрируйтесь чтобы добавить комментарий
Торрент клиент
byTorrent - программа для загрузки торрент-файлов.

Скачать byTorrent.exe (1,5 МБ)

Скачать byTorrent.zip (0,6 МБ)

Поддержи torrent.by
российских рублей
(300 российских рублей это 4$)

Обратная связь rss

End game ©