↑↓torrent.by
Поиск
Логин:  Регистрация
Пароль:

Аргайл: Супершпион / Argylle (2024) WEB-DLRip 1080p от селезень | D

download Скачать торрент-файл   magnet Магнитная ссылка Размер: 10.30 GB Добавлен: 2024-03-23 11:00
Пиры будут получены из сети DHT
Последний сидер был замечен 2024-04-08 20:58
Информация о фильме Название: Аргайл: Супершпион Оригинальное название: Argylle Год выхода: 2024 Жанр: боевик, комедия Режиссер: Мэттью Вон В ролях: София Бутелла, Генри Кавилл, Дуа Липа, Брайс Даллас Ховард, Сэм Рокуэлл, Джон Сина, Сэмюэл Л. Джексон, Брайан Крэнстон, Кэтрин О`Хара, Ариана ДеБос О фильме: Элли Конвей — писательница, живущая в затворничестве. Серия ее шпионских романов пользуется бешеной популярностью, но для Элли нет ничего лучше, чем домашний вечер в компании компьютера и кота Альфи. Но однажды Элли обнаруживает, что ее сюжеты о секретном агенте с позывным Аргайл и его миссии по раскрытию глобального шпионского синдиката не такие уж и вымышленные. Когда в ее жизни появляется Эйден — шпион, утверждающий, что должен спасти Элли от похищения или чего похуже, героиня со своим котом оказывается втянута в историю, которой позавидовал бы любой писатель. «Аргайл: Супершпион» — шпионский боевик с Брайс Даллас Ховард и Генри Кавиллом по мотивам одноименного романа Элли Конвей. Выпущено: Великобритания, США / Apple Original Films, Apple Studios, Cloudy Productions Продолжительность: 02:19:00 Перевод: Дублированный (официальный) | Bravo Records Georgia / Movie Dubbing Субтитры: Русские (Forced, Full, SDH), Английские (Full, SDH) Файл Формат: Matroska Качество: WEB-DLRip 1080p | исх. Argylle.2024.2160p.AMZN.WEB-DL.DDP5.1.H.265-FLUX.mkv Видео: 1920x800 at 23.976 fps, MPEG-4 AVC, ~9394 kbps Аудио 1: AC3, 6 ch, ~448 kbps - | Русский | | Bravo Records Georgia / Movie Dubbing Аудио 2: E-АС3+Atmos, 6 ch, 48.0 kHz, 768 kb/s - | Английский | Формат субтитров: softsub (SRT)
[+] MIGeneral Unique ID : 59334565450686802912383839008782630906 (0x2CA36BF0327AD27D471F0703BCED3FFA) Complete name : H:VideoHArgylle.2024.WEB-DLRip.1080p.seleZen.mkv Format : Matroska Format version : Version 4 File size : 10.3 GiB Duration : 2 h 19 min Overall bit rate : 10.6 Mb/s Frame rate : 23.976 FPS Movie name : Argylle (2024) from seleZen Encoded date : 2024-03-23 02:53:33 UTC Writing application : mkvmerge v80.0 ('Roundabout') 64-bit Writing library : libebml v1.4.4 + libmatroska v1.7.1 Video ID : 1 Format : AVC Format/Info : Advanced Video Codec Format profile : High@L4.1 Format settings : CABAC / 5 Ref Frames Format settings, CABAC : Yes Format settings, Reference : 5 frames Codec ID : V_MPEG4/ISO/AVC Duration : 2 h 19 min Bit rate : 9 394 kb/s Width : 1 920 pixels Height : 800 pixels Display aspect ratio : 2.40:1 Frame rate mode : Constant Frame rate : 23.976 (24000/1001) FPS Color space : YUV Chroma subsampling : 4:2:0 Bit depth : 8 bits Scan type : Progressive Bits/(Pixel*Frame) : 0.255 Stream size : 9.12 GiB (89%) Writing library : x264 core 164 r3164 seleZen Encoding settings : cabac=1 / ref=5 / deblock=1:-2:-2 / analyse=0x3:0x133 / me=umh / subme=10 / psy=1 / psy_rd=1.00:0.00 / mixed_ref=1 / me_range=32 / chroma_me=1 / trellis=2 / 8x8dct=1 / cqm=0 / deadzone=21,11 / fast_pskip=0 / chroma_qp_offset=-2 / threads=25 / lookahead_threads=4 / sliced_threads=0 / nr=0 / decimate=0 / interlaced=0 / bluray_compat=0 / constrained_intra=0 / bframes=9 / b_pyramid=2 / b_adapt=2 / b_bias=0 / direct=1 / weightb=1 / open_gop=0 / weightp=2 / keyint=240 / keyint_min=23 / scenecut=40 / intra_refresh=0 / rc_lookahead=60 / rc=crf / mbtree=0 / crf=17.6 / qcomp=0.60 / qpmin=0 / qpmax=51 / qpstep=4 / vbv_maxrate=50000 / vbv_bufsize=62500 / crf_max=0.0 / nal_hrd=none / filler=0 / ip_ratio=1.40 / pb_ratio=1.30 / aq=3:0.80 Language : English Default : Yes Forced : No Audio #1 ID : 2 Format : AC-3 Format/Info : Audio Coding 3 Commercial name : Dolby Digital Codec ID : A_AC3 Duration : 2 h 18 min Bit rate mode : Constant Bit rate : 448 kb/s Channel(s) : 6 channels Channel layout : L R C LFE Ls Rs Sampling rate : 48.0 kHz Frame rate : 31.250 FPS (1536 SPF) Compression mode : Lossy Stream size : 445 MiB (4%) Title : Dub_Bravo Records Georgia / Movie Dubbing Language : Russian Service kind : Complete Main Default : Yes Forced : No Audio #2 ID : 3 Format : E-AC-3 JOC Format/Info : Enhanced AC-3 with Joint Object Coding Commercial name : Dolby Digital Plus with Dolby Atmos Codec ID : A_EAC3 Duration : 2 h 18 min Bit rate mode : Constant Bit rate : 768 kb/s Channel(s) : 6 channels Channel layout : L R C LFE Ls Rs Sampling rate : 48.0 kHz Frame rate : 31.250 FPS (1536 SPF) Compression mode : Lossy Stream size : 763 MiB (7%) Title : Original Language : English Service kind : Complete Main Default : No Forced : No Complexity index : 16 Number of dynamic objects : 15 Bed channel count : 1 channel Bed channel configuration : LFE Text #1 ID : 4 Format : UTF-8 Codec ID : S_TEXT/UTF8 Codec ID/Info : UTF-8 Plain Text Duration : 2 h 11 min Bit rate : 2 b/s Frame rate : 0.008 FPS Count of elements : 62 Stream size : 2.34 KiB (0%) Title : Forced Language : Russian Default : No Forced : No Text #2 ID : 5 Format : UTF-8 Codec ID : S_TEXT/UTF8 Codec ID/Info : UTF-8 Plain Text Duration : 2 h 17 min Bit rate : 84 b/s Frame rate : 0.215 FPS Count of elements : 1776 Stream size : 84.9 KiB (0%) Title : Full Language : Russian Default : No Forced : No Text #3 ID : 6 Format : UTF-8 Codec ID : S_TEXT/UTF8 Codec ID/Info : UTF-8 Plain Text Duration : 2 h 18 min Bit rate : 96 b/s Frame rate : 0.247 FPS Count of elements : 2046 Stream size : 97.7 KiB (0%) Title : SDH Language : Russian Default : No Forced : No Text #4 ID : 7 Format : UTF-8 Codec ID : S_TEXT/UTF8 Codec ID/Info : UTF-8 Plain Text Duration : 2 h 10 min Bit rate : 56 b/s Frame rate : 0.219 FPS Count of elements : 1714 Stream size : 54.1 KiB (0%) Title : Full Language : English Default : No Forced : No Text #5 ID : 8 Format : UTF-8 Codec ID : S_TEXT/UTF8 Codec ID/Info : UTF-8 Plain Text Duration : 2 h 15 min Bit rate : 65 b/s Frame rate : 0.254 FPS Count of elements : 2060 Stream size : 64.8 KiB (0%) Title : SDH Language : English Default : No Forced : No
Релиз: Присоединяйся к: Кликай на баннеры.

Всего файлов в раздаче: 1 
Argylle.2024.WEB-DLRip.1080p.seleZen.mkv10.30 GB

Похожие раздачи по запросу - Аргайл
2024-03-25 magnet Аргайл: Супершпион / Argylle (2024) WEB-DL 2160p | 4K | HDR | Dolby Vision Profile 8 | D, P, P2 27.37 GB ↑ 0 ↓ 0
2024-03-23 magnet Аргайл: Супершпион / Argylle (2024) WEB-DL 720p от селезень | D 4.44 GB ↑ 0 ↓ 0
2024-03-23 magnet Аргайл: Супершпион / Argylle (2024) WEB-DL 2160p | 4K | SDR | D, P, P2 17.70 GB ↑ 0 ↓ 0
2024-03-23 magnet Аргайл: Супершпион / Argylle (2024) WEB-DLRip от toxics & селезень | D 2.18 GB ↑ 0 ↓ 0
2024-03-23 magnet Аргайл: Супершпион / Argylle (2024) WEB-DLRip от MegaPeer | D 1.46 GB ↑ 0 ↓ 0
2024-03-23 magnet Аргайл: Супершпион / Argylle (2024) WEB-DLRip-AVC от DoMiNo & селезень | D 2.14 GB ↑ 0 ↓ 0
2024-03-23 magnet Аргайл: Супершпион / Argylle (2024) WEB-DL 1080p от EniaHD | D, P, P2 11.82 GB ↑ 0 ↓ 2

Комментарии


Зарегистрируйтесь чтобы добавить комментарий
Торрент клиент
byTorrent - программа для загрузки торрент-файлов.

Скачать byTorrent.exe (1,5 МБ)

Скачать byTorrent.zip (0,6 МБ)

Поддержи torrent.by
российских рублей
(300 российских рублей это 4$)

Обратная связь rss

End game ©