↑↓torrent.by
Поиск
Логин:  Регистрация
Пароль:

Olivia Rodrigo - Guts [24-bit Hi-Res, Spilled] (2024) FLAC

download Скачать торрент-файл   magnet Магнитная ссылка Размер: 686.92 MB Добавлен: 2024-03-23 17:00
Пиры будут получены из сети DHT
Последний сидер был замечен 2024-03-31 13:01
Название: Guts (Spilled) Исполнитель: Olivia Rodrigo Год: 2024 Жанр: Rock, Pop, Alt-Pop, Ballad, Indie-Pop, Pop-Rock, Power-Pop Издатель (лейбл): Olivia Rodrigo PS Продолжительность: 00:54:37 Формат/Кодек: FLAC Тип рипа: Tracks Битрейт аудио: Lossless Разрядность: 24 Bit/48 kHz
[+] Трек-лист 01. All-American Bitch (00:02:46) 02. Bad Idea Right? (00:03:05) 03. Vampire (00:03:40) 04. Lacy (00:02:57) 05. Ballad Of A Homeschooled Girl (00:03:23) 06. Making The Bed (00:03:19) 07. Logical (00:03:52) 08. Get Him Back! (00:03:31) 09. Love Is Embarrassing (00:02:35) 10. The Grudge (00:03:09) 11. Pretty Isn’t Pretty (00:03:19) 12. Teenage Dream (00:03:42) 13. Obsessed (00:02:51) 14. Girl I’ve Always Been (00:02:01) 15. Scared Of My Guitar (00:04:24) 16. Stranger (00:03:13) 17. So American (00:02:50)
[+] DRM foobar2000 1.5.5 / Замер динамического диапазона (DR) 1.1.1 ------------------------------------------------------------------------------- Анализ: Olivia Rodrigo / Guts (Spilled) -------------------------------------------------------------------------------- DR Пики RMS Продолжительность трека -------------------------------------------------------------------------------- DR3 -0.20 дБ -7.07 дБ 2:46 01-All-American Bitch DR4 -0.20 дБ -6.05 дБ 3:05 02-Bad Idea Right? DR5 -0.20 дБ -8.29 дБ 3:40 03-Vampire DR5 -0.20 дБ -9.28 дБ 2:57 04-Lacy DR5 -0.20 дБ -6.94 дБ 3:23 05-Ballad Of A Homeschooled Girl DR6 -0.20 дБ -8.66 дБ 3:19 06-Making The Bed DR7 -0.20 дБ -10.99 дБ 3:52 07-Logical DR6 -0.20 дБ -8.21 дБ 3:31 08-Get Him Back! DR4 -0.20 дБ -6.19 дБ 2:35 09-Love Is Embarrassing DR6 -0.20 дБ -9.81 дБ 3:09 10-The Grudge DR5 -0.20 дБ -6.44 дБ 3:19 11-Pretty Isn’t Pretty DR6 -0.20 дБ -11.16 дБ 3:42 12-Teenage Dream DR5 -0.20 дБ -7.44 дБ 2:51 13-Obsessed DR6 -0.20 дБ -8.88 дБ 2:01 14-Girl I’ve Always Been DR9 -0.20 дБ -12.68 дБ 4:24 15-Scared Of My Guitar DR5 -0.20 дБ -7.62 дБ 3:13 16-Stranger DR3 -0.20 дБ -4.58 дБ 2:50 17-So American -------------------------------------------------------------------------------- Количество треков: 17 Реальные значения DR: DR5 Частота: 48000 Гц Каналов: 2 Разрядность: 24 Битрейт: 1967 кбит/с Кодек: FLAC ================================================================================
Время раздачи: 24/7 (минимум до появления первых 3-5 скачавших, на раздачи не возвращаюсь) Первое правило участника файлообмена: "Скачал сам - дай скачать другому!"

Всего файлов в раздаче: 18 
01. all-american bitch.flac35.35 MB
02. bad idea right_.flac39.57 MB
03. vampire.flac46.82 MB
04. lacy.flac36.60 MB
05. ballad of a homeschooled girl.flac45.85 MB
06. making the bed.flac40.12 MB
07. logical.flac45.14 MB
08. get him back!.flac46.60 MB
09. love is embarrassing.flac36.43 MB
10. the grudge.flac36.55 MB
Показать все файлы

Комментарии


Зарегистрируйтесь чтобы добавить комментарий
Торрент клиент
byTorrent - программа для загрузки торрент-файлов.

Скачать byTorrent.exe (1,5 МБ)

Скачать byTorrent.zip (0,6 МБ)

Поддержи torrent.by
российских рублей
(300 российских рублей это 4$)

Обратная связь rss

End game ©