↑↓torrent.by
Поиск
Логин:  Регистрация
Пароль:

Викинги / The Vikings (1958) BDRip 1080p | D, P, P2, A

download Скачать торрент-файл   magnet Магнитная ссылка Размер: 11.27 GB Добавлен: 2024-03-23 17:00
Пиры будут получены из сети DHT
Последний сидер был замечен 2024-03-24 14:49
Информация о фильме Название: Викинги Оригинальное название: The Vikings Год выпуска: 1958 Страна: США Жанр: Приключения, история Продолжительность: 01:56:02 Перевод: Профессиональный (дублированный) Советский дубляж -со вставки многоголосого закадрового Перевод: Профессиональный (многоголосый закадровый) Перевод: Профессиональный (двухголосый закадровый) НТВ+ Перевод: Профессиональный (двухголосый закадровый) Somewax Перевод: Авторский (одноголосый закадровый) Юрий Живов Cубтитры: Русские, английские Режиссер: Ричард Флейшер В ролях: Кирк Дуглас, Тони Кёртис, Эрнест Боргнайн, Джанет Ли, Джеймс Дональд, Александр Нокс, Максин Одли, Фрэнк Тринг, Эйлин Вэй, Эдрик Коннор, Дэнди Николс О фильме: Экранизация романа Эдисона Маршалла «Викинг». Викинги во главе с королем Рагнаром (Боргнайн) совершают налет на побережье Англии, насилуют женщин, убивают мужчин и грабят, как и было в обычае в те времена. Изнасилована и королева. В результате этого на свет появляется ребенок — Эрик (Тони Кертис), который растет при дворе Рагнара как раб и ничего не знает о своих родителях. Он и Эйнар (Кирк Дуглас), родной, законный сын Боргнайна с детства ненавидели друг друга и однажды дошло до схватки, во время которой Эйнар лишается глаза. В ярости Эйнар приказывает бросить Эрика в яму — на съедение крабами, но его спасает изгнанник из Англии, узнавший амулет Эрика, означающий его королевское происхождение. Эрик отправляется в побег, но родная Англия оказывается негостеприимна и вскоре обстоятельства приводят к тому, что он и его заклятый враг Эйнар, отложив на время взаимную ненависть, вместе ведут ладьи викингов к британским берегам... Действие фильма разворачивается на фоне завораживающих своей красотой норвежских фиордов и скалистых берегов Франции. Файл Качество: BDRip 1080p Формат: MKV Видео кодек: H264 Аудио кодек: AC3 Видео: MPEG4 Video (H264) 1920x816, 23.976fps, 12.5 Mbps Аудио: Русский, Dolby AC3, 48000 Hz, 2ch, 192 kbps - Советский дубляж Аудио: Русский, Dolby AC3, 48000 Hz, 2ch, 192 kbps - Многоголосый Аудио: Русский, Dolby AC3, 48000 Hz, 2ch, 192 kbps - Двухголосый, НТВ+ Аудио: Русский, Dolby AC3, 48000 Hz, 2ch, 192 kbps - Двухголосый, Somewax Аудио: Русский, Dolby AC3, 48000 Hz, 2ch, 192 kbps - Одноголосый, Юрий Живов Аудио: Английский, Dolby AC3, 48000 Hz, 2 ch, 448 kbps Формат субтитров: softsub (SRT) Сэмпл
[+] MediaInfo: General Unique ID : 187082014186411818071541673997243829712 (0x8CBEAF70FC9257508255E22BC0C4CDD0) Complete name : G:DVDRip1958 Викинги.mkv Format : Matroska Format version : Version 4 / Version 2 File size : 11.3 GiB Duration : 1h 56mn Overall bit rate : 13.9 Mbps Movie name : 1958 Викинги / renta23 Encoded date : UTC 2016-03-16 00:55:30 Writing application : mkvmerge v8.3.0 ('Over the Horizon') 64bit Writing library : libebml v1.3.1 + libmatroska v1.4.2 Video ID : 1 Format : AVC Format/Info : Advanced Video Codec Format profile : High@L4.1 Format settings, CABAC : Yes Format settings, ReFrames : 5 frames Codec ID : V_MPEG4/ISO/AVC Duration : 1h 56mn Bit rate : 12.5 Mbps Width : 1 920 pixels Height : 816 pixels Display aspect ratio : 2.35:1 Frame rate mode : Constant Frame rate : 23.976 (24000/1001) fps Color space : YUV Chroma subsampling : 4:2:0 Bit depth : 8 bits Scan type : Progressive Bits/(Pixel*Frame) : 0.333 Stream size : 10.1 GiB (90%) Title : 1958 Викинги Writing library : x264 core 146 r2538 121396c Encoding settings : cabac=1 / ref=5 / deblock=1:-1:-1 / analyse=0x3:0x133 / me=umh / subme=11 / psy=1 / psy_rd=1.07:0.23 / mixed_ref=1 / me_range=32 / chroma_me=1 / trellis=2 / 8x8dct=1 / cqm=0 / deadzone=21,11 / fast_pskip=0 / chroma_qp_offset=-3 / threads=12 / lookahead_threads=3 / sliced_threads=0 / nr=0 / decimate=1 / interlaced=0 / bluray_compat=0 / constrained_intra=0 / bframes=12 / b_pyramid=2 / b_adapt=2 / b_bias=0 / direct=3 / weightb=1 / open_gop=0 / weightp=2 / keyint=250 / keyint_min=23 / scenecut=40 / intra_refresh=0 / rc=2pass / mbtree=0 / bitrate=12500 / ratetol=1.0 / qcomp=0.60 / qpmin=0 / qpmax=69 / qpstep=4 / cplxblur=20.0 / qblur=0.5 / ip_ratio=1.40 / pb_ratio=1.30 / aq=2:1.00 Language : English Default : Yes Forced : No Audio #1 ID : 2 Format : AC-3 Format/Info : Audio Coding 3 Mode extension : CM (complete main) Format settings, Endianness : Big Codec ID : A_AC3 Duration : 1h 56mn Bit rate mode : Constant Bit rate : 192 Kbps Channel(s) : 2 channels Channel positions : Front: L R Sampling rate : 48.0 KHz Frame rate : 31.250 fps (1536 spf) Compression mode : Lossy Stream size : 159 MiB (1%) Title : Советский дубляж Language : Russian Default : Yes Forced : No Audio #2 ID : 3 Format : AC-3 Format/Info : Audio Coding 3 Mode extension : CM (complete main) Format settings, Endianness : Big Codec ID : A_AC3 Duration : 1h 56mn Bit rate mode : Constant Bit rate : 192 Kbps Channel(s) : 2 channels Channel positions : Front: L R Sampling rate : 48.0 KHz Frame rate : 31.250 fps (1536 spf) Compression mode : Lossy Stream size : 159 MiB (1%) Title : Многоголосый Language : Russian Default : No Forced : No Audio #3 ID : 4 Format : AC-3 Format/Info : Audio Coding 3 Mode extension : CM (complete main) Format settings, Endianness : Big Codec ID : A_AC3 Duration : 1h 55mn Bit rate mode : Constant Bit rate : 192 Kbps Channel(s) : 2 channels Channel positions : Front: L R Sampling rate : 48.0 KHz Frame rate : 31.250 fps (1536 spf) Compression mode : Lossy Stream size : 159 MiB (1%) Title : Двухголосый, НТВ+ Language : Russian Default : No Forced : No Audio #4 ID : 5 Format : AC-3 Format/Info : Audio Coding 3 Mode extension : CM (complete main) Format settings, Endianness : Big Codec ID : A_AC3 Duration : 1h 55mn Bit rate mode : Constant Bit rate : 192 Kbps Channel(s) : 2 channels Channel positions : Front: L R Sampling rate : 48.0 KHz Frame rate : 31.250 fps (1536 spf) Compression mode : Lossy Stream size : 159 MiB (1%) Title : Двухголосый, Somewax Language : Russian Default : No Forced : No Audio #5 ID : 6 Format : AC-3 Format/Info : Audio Coding 3 Mode extension : CM (complete main) Format settings, Endianness : Big Codec ID : A_AC3 Duration : 1h 56mn Bit rate mode : Constant Bit rate : 192 Kbps Channel(s) : 2 channels Channel positions : Front: L R Sampling rate : 48.0 KHz Frame rate : 31.250 fps (1536 spf) Compression mode : Lossy Stream size : 159 MiB (1%) Title : Одноголосый, Юрий Живов Language : Russian Default : No Forced : No Audio #6 ID : 7 Format : AC-3 Format/Info : Audio Coding 3 Mode extension : CM (complete main) Format settings, Endianness : Big Codec ID : A_AC3 Duration : 1h 56mn Bit rate mode : Constant Bit rate : 448 Kbps Channel(s) : 2 channels Channel positions : Front: L R Sampling rate : 48.0 KHz Frame rate : 31.250 fps (1536 spf) Compression mode : Lossy Stream size : 372 MiB (3%) Language : English Default : No Forced : No Text #1 ID : 8 Format : UTF-8 Codec ID : S_TEXT/UTF8 Codec ID/Info : UTF-8 Plain Text Duration : 1h 51mn Bit rate : 42 bps Count of elements : 676 Stream size : 34.7 KiB (0%) Language : Russian Default : No Forced : No Text #2 ID : 9 Format : UTF-8 Codec ID : S_TEXT/UTF8 Codec ID/Info : UTF-8 Plain Text Duration : 1h 51mn Bit rate : 28 bps Count of elements : 670 Stream size : 23.5 KiB (0%) Language : English Default : No Forced : No Menu 00:00:00.000 : en:00:00:00.000 00:10:24.457 : en:00:10:24.457 00:35:01.141 : en:00:35:01.141 00:50:05.211 : en:00:50:05.211 01:05:28.300 : en:01:05:28.300 01:16:33.756 : en:01:16:33.756 01:23:15.699 : en:01:23:15.699 01:42:14.670 : en:01:42:14.670

Всего файлов в раздаче: 1 
1958.Vikings.renta23.mkv11.27 GB

Похожие раздачи по запросу - Викинги
2024-02-11 magnet Викинги / Vikings [S01-06] (2013-2019) WEB-DLRip | LostFilm 5К43.26 GB ↑ 0 ↓ 1

Комментарии

merkator36
Дубляж не полный, есть вставки многоголосого закадрового на недублированные фрагменты.


Зарегистрируйтесь чтобы добавить комментарий
Торрент клиент
byTorrent - программа для загрузки торрент-файлов.

Скачать byTorrent.exe (1,5 МБ)

Скачать byTorrent.zip (0,6 МБ)

Поддержи torrent.by
российских рублей
(300 российских рублей это 4$)

Обратная связь rss

End game ©