↑↓torrent.by
Поиск
Логин:  Регистрация
Пароль:

Sum 41 - Heaven :x: Hell [24-bit Hi-Res] (2024) FLAC

download Скачать торрент-файл   magnet Магнитная ссылка Размер: 677.44 MB Добавлен: 2024-03-23 17:00
Пиры будут получены из сети DHT
Последний сидер был замечен 2024-04-17 09:09
Название: Heaven :x: Hell Исполнитель: Sum 41 Год: 2024 Жанр: Alternative Издатель (лейбл): Rise Records Продолжительность: 00:55:12 Формат/Кодек: FLAC Тип рипа: Tracks Битрейт аудио: Lossless Разрядность: 24 Bit/44,1 kHz
[+] Трек-лист 01. Waiting On A Twist Of Fate (00:02:47) 02. Landmines (00:02:56) 03. I Can't Wait (00:02:06) 04. Time Won't Wait (00:02:31) 05. Future Primitive (00:02:12) 06. Dopamine (00:03:07) 07. Not Quite Myself (00:02:54) 08. Bad Mistake (00:03:03) 09. Johnny Libertine (00:01:35) 10. Radio Silence (00:03:23) 11. Preparasi A Salire (00:01:09) 12. Rise Up (00:03:17) 13. Stranger In These Times (00:02:57) 14. I Don't Need Anyone (00:03:10) 15. Over The Edge (00:03:09) 16. House Of Liars (00:03:06) 17. You Wanted War (00:03:32) 18. Paint It Black (00:02:43) 19. It's All Me (00:02:19) 20. How The End Begins (00:03:16)
[+] DRM foobar2000 1.5.5 / Замер динамического диапазона (DR) 1.1.1 ------------------------------------------------------------------------------- Анализ: Sum 41 / Heaven :x: Hell -------------------------------------------------------------------------------- DR Пики RMS Продолжительность трека -------------------------------------------------------------------------------- DR4 -0.15 дБ -5.77 дБ 2:47 01-Waiting On A Twist Of Fate DR5 -0.21 дБ -6.59 дБ 2:56 02-Landmines DR5 -0.15 дБ -5.74 дБ 2:06 03-I Can't Wait DR5 -0.15 дБ -6.40 дБ 2:31 04-Time Won't Wait DR4 -0.15 дБ -5.15 дБ 2:12 05-Future Primitive DR5 -0.21 дБ -6.71 дБ 3:07 06-Dopamine DR4 -0.15 дБ -5.92 дБ 2:54 07-Not Quite Myself DR4 -0.15 дБ -5.41 дБ 3:03 08-Bad Mistake DR4 -0.15 дБ -5.06 дБ 1:35 09-Johnny Libertine DR4 -0.15 дБ -6.86 дБ 3:23 10-Radio Silence DR5 -0.15 дБ -8.25 дБ 1:09 11-Preparasi A Salire DR4 -0.15 дБ -5.17 дБ 3:17 12-Rise Up DR3 -0.15 дБ -4.96 дБ 2:57 13-Stranger In These Times DR4 -0.15 дБ -5.39 дБ 3:10 14-I Don't Need Anyone DR4 -0.15 дБ -5.88 дБ 3:09 15-Over The Edge DR4 -0.15 дБ -5.26 дБ 3:06 16-House Of Liars DR4 -0.15 дБ -4.98 дБ 3:32 17-You Wanted War DR4 -0.15 дБ -5.26 дБ 2:43 18-Paint It Black DR3 -0.15 дБ -4.67 дБ 2:19 19-It's All Me DR4 -0.15 дБ -5.69 дБ 3:16 20-How The End Begins -------------------------------------------------------------------------------- Количество треков: 20 Реальные значения DR: DR4 Частота: 44100 Гц Каналов: 2 Разрядность: 24 Битрейт: 1664 кбит/с Кодек: FLAC ================================================================================
Время раздачи: 24/7 (минимум до появления первых 3-5 скачавших, на раздачи не возвращаюсь) Первое правило участника файлообмена: "Скачал сам - дай скачать другому!"

Всего файлов в раздаче: 21 
01. Waiting On a Twist of Fate.flac34.58 MB
02. Landmines.flac36.43 MB
03. I Can't Wait.flac26.11 MB
04. Time Won't Wait.flac31.13 MB
05. Future Primitive.flac27.71 MB
06. Dopamine.flac37.88 MB
07. Not Quite Myself.flac35.60 MB
08. Bad Mistake.flac38.06 MB
09. Johnny Libertine.flac20.13 MB
10. Radio Silence.flac39.14 MB
Показать все файлы

Похожие раздачи по запросу - Sum
2024-03-23 magnet Sum 41 - Heaven :x: Hell (2024) MP3 130.87 MB ↑ 0 ↓ 0

Комментарии


Зарегистрируйтесь чтобы добавить комментарий
Торрент клиент
byTorrent - программа для загрузки торрент-файлов.

Скачать byTorrent.exe (1,5 МБ)

Скачать byTorrent.zip (0,6 МБ)

Поддержи torrent.by
российских рублей
(300 российских рублей это 4$)

Обратная связь rss

End game ©