↑↓torrent.by
Поиск
Логин:  Регистрация
Пароль:

Саша и Питер [S01] (2024) WEBRip-AVC от Generalfilm | КПК

download Скачать торрент-файл   magnet Магнитная ссылка Размер: 1.24 GB Добавлен: 2024-03-23 17:00
Пиры будут получены из сети DHT
Последний сидер был замечен 2024-04-11 23:15
Информация о фильме Оригинальное название: Саша и Питер Год выпуска: 2024 Жанр: Комедия, мелодрама Режиссер: Валерия Шкирандо В ролях: Аглая Тарасова, Антон Филипенко, Полина Филоненко, Никита Тарасов, Иван Мулин, Мариэтта Цигаль-Полищук, Агния Кузнецова, Глеб Бочков, Алёна Кучкова, Илья Дель, Мария Ковалёва (II), Анна Нерус, Андрей Некрасов, Васса Бокова О сериале: Бойкая и решительная Саша хочет отомстить своему бывшему парню и сорвать ему свадьбу. Чтобы претворить свой план в жизнь, Саша приезжает в Санкт-Петербург, где устраивается на работу в ЗАГС. Но вместо регистратора свадеб ей достается место регистратора разводов. Саша становится свидетельницей многих нелепых ситуаций, а также участницей романтических приключений. Страна: Россия Студия: Кинокомпания "К.Б.А." Продолжительность: 12 x ~ 00:24:00 Перевод: Не требуется Файл Формат: MP4 Качество: WEBRip-AVC Видео: MPEG-4 AVC (x264), 640x272, ~ 500 kbps, 25.000 fps Аудио: AAC LC, 48.0 KHz, 2 ch, 128 Kbps Субтитры: Нет
[+] Скриншоты
[+] MIComplete name : D:киноSasha.I.Piter.S01.2024.WEBRip-AVC.KPK.GFSasha.I.Piter.s01e01.2024.WEBRip-AVC.KPK.GF.mp4 Format : MPEG-4 Codec ID : M4V (isom/iso2/avc1) File size : 110 MiB Duration : 24mn 20s Overall bit rate mode : Variable Overall bit rate : 633 Kbps Writing application : Lavf53.19.0 Video ID : 1 Format : AVC Format/Info : Advanced Video Codec Format profile : High@L4.1 Format settings, CABAC : Yes Format settings, ReFrames : 8 frames Codec ID : avc1 Codec ID/Info : Advanced Video Coding Duration : 24mn 20s Bit rate : 500 Kbps Width : 640 pixels Height : 272 pixels Display aspect ratio : 2.35:1 Frame rate mode : Constant Frame rate : 25.000 fps Color space : YUV Chroma subsampling : 4:2:0 Bit depth : 8 bits Scan type : Progressive Bits/(Pixel*Frame) : 0.115 Stream size : 87.0 MiB (79%) Writing library : x264 core 146 r2538 121396c Encoding settings : cabac=1 / ref=8 / deblock=1:-1:-1 / analyse=0x3:0x133 / me=umh / subme=10 / psy=1 / psy_rd=1.00:0.00 / mixed_ref=1 / me_range=24 / chroma_me=1 / trellis=2 / 8x8dct=1 / cqm=0 / deadzone=21,11 / fast_pskip=1 / chroma_qp_offset=-2 / threads=3 / lookahead_threads=1 / sliced_threads=0 / nr=0 / decimate=1 / interlaced=0 / bluray_compat=0 / constrained_intra=0 / bframes=8 / b_pyramid=2 / b_adapt=2 / b_bias=0 / direct=3 / weightb=1 / open_gop=0 / weightp=2 / keyint=250 / keyint_min=126 / scenecut=40 / intra_refresh=0 / rc_lookahead=40 / rc=2pass / mbtree=1 / bitrate=500 / ratetol=1.0 / qcomp=0.60 / qpmin=0 / qpmax=69 / qpstep=4 / cplxblur=20.0 / qblur=0.5 / ip_ratio=1.40 / aq=1:1.00 Menus : 3 Audio ID : 2 Format : AAC Format/Info : Advanced Audio Codec Format profile : LC Codec ID : 40 Duration : 24mn 20s Bit rate mode : Variable Bit rate : 128 Kbps Channel(s) : 2 channels Channel positions : Front: L R Sampling rate : 48.0 KHz Frame rate : 46.875 fps (1024 spf) Compression mode : Lossy Stream size : 22.1 MiB (20%) Default : Yes Alternate group : 1 Menus : 3
Релиз от:

Всего файлов в раздаче: 12 
Sasha.I.Piter.s01e01.2024.WEBRip-AVC.KPK.GF.mp4110.19 MB
Sasha.I.Piter.s01e02.2024.WEBRip-AVC.KPK.GF.mp4103.67 MB
Sasha.I.Piter.s01e03.2024.WEBRip-AVC.KPK.GF.mp4103.04 MB
Sasha.I.Piter.s01e04.2024.WEBRip-AVC.KPK.GF.mp4106.11 MB
Sasha.I.Piter.s01e05.2024.WEBRip-AVC.KPK.GF.mp4109.36 MB
Sasha.I.Piter.s01e06.2024.WEBRip-AVC.KPK.GF.mp4103.63 MB
Sasha.I.Piter.s01e07.2024.WEBRip-AVC.KPK.GF.mp4111.02 MB
Sasha.I.Piter.s01e08.2024.WEBRip-AVC.KPK.GF.mp4110.73 MB
Sasha.I.Piter.s01e09.2024.WEBRip-AVC.KPK.GF.mp4105.10 MB
Sasha.I.Piter.s01e10.2024.WEBRip-AVC.KPK.GF.mp4103.03 MB
Показать все файлы

Похожие раздачи по запросу - Саша
2024-04-04 magnet Саша Фишер - Цикл «90-е: Шоу должно продолжаться» [4 книги] (2023-2024) FB2 3.22 MB ↑ 0 ↓ 0
2024-04-04 magnet Саша Токсик - Лорд Системы 01 (2024) МР3 211.54 MB ↑ 0 ↓ 0
2024-03-23 magnet Саша и Питер [S01] (2024) WEBRip 720p от Files-x 6.26 GB ↑ 0 ↓ 1
2024-03-22 magnet Саша и Питер [S01] (2024) WEBRip-AVC от Files-x 3.50 GB ↑ 0 ↓ 0
2024-03-22 magnet Саша и Питер [01х01-12 из 12] (2024) WEBRip от Files-x 3.51 GB ↑ 0 ↓ 0
2024-03-21 magnet Саша и Питер [S01] (2024) WEBRip 1080p 9.09 GB ↑ 0 ↓ 0
2024-03-18 magnet Саша и Питер [01-10 из 12] (2024) WEBRip-AVC от Generalfilm | КПК 1.04 GB ↑ 0 ↓ 0

Комментарии


Зарегистрируйтесь чтобы добавить комментарий
Торрент клиент
byTorrent - программа для загрузки торрент-файлов.

Скачать byTorrent.exe (1,5 МБ)

Скачать byTorrent.zip (0,6 МБ)

Поддержи torrent.by
российских рублей
(300 российских рублей это 4$)

Обратная связь rss

End game ©