↑↓torrent.by
Поиск
Логин:  Регистрация
Пароль:

Кино (Виктор Цой) - 12-22 (2022) FLAC

download Скачать торрент-файл   magnet Магнитная ссылка Размер: 528.34 MB Добавлен: 2024-03-23 17:00
Пиры будут получены из сети DHT
Последний сидер был замечен 2024-04-07 17:59
Название: 12-22 Исполнитель: Кино (Виктор Цой) Год: 2022 Жанр: Rock Страна: Россия Сканы: Да Продолжительность: 01:10:35 Формат/Кодек: FLAC Image-cue Битрейт аудио: Lossless
[+] Трек-лист 01. Нам с тобой 02. Мама, мы все тяжело больны 03. Троллейбус 04. Сосны на морском берегу 05. Закрой за мной дверь 06. Попробуй спеть вместе со мной 07. Место для шага вперед 08. Когда твоя девушка больна 09. Атаман 10. Это не любовь 11. Бездельник 12. Музыка волн 13. Генерал 14. Я объявляю свой дом 15. Саша 16. Последний герой 17. Кукушка (Live) 18. Следи за собой (Live)
[+] Отчёт EACExact Audio Copy V1.6 from 23. October 2020 Отчёт EAC об извлечении, выполненном 23. декабря 2022, 7:24 Кино / 12-22 Дисковод: ASUS DRW-1814BL Adapter: 1 ID: 0 Режим чтения : Достоверность Использование точного потока : Да Отключение кэша аудио : Да Использование указателей C2 : Нет Коррекция смещения при чтении : 6 Способность читать области Lead-in и Lead-out : Нет Заполнение пропущенных сэмплов тишиной : Да Удаление блоков с тишиной в начале и конце : Нет При вычислениях CRC использовались нулевые сэмплы : Да Интерфейс : Встроенный Win32-интерфейс для Win NT/2000 Выходной формат : Внутренние WAV-операции Формат сэмплов : 44.1 кГц; 16 бит; стерео TOC извлечённого CD Трек | Старт | Длительность | Начальный сектор | Конечный сектор --------------------------------------------------------------------- 1 | 0:00.00 | 4:52.10 | 0 | 21909 2 | 4:52.10 | 3:55.59 | 21910 | 39593 3 | 8:47.69 | 2:48.16 | 39594 | 52209 4 | 11:36.10 | 4:24.10 | 52210 | 72019 5 | 16:00.20 | 3:24.58 | 72020 | 87377 6 | 19:25.03 | 4:33.11 | 87378 | 107863 7 | 23:58.14 | 3:38.60 | 107864 | 124273 8 | 27:36.74 | 4:04.69 | 124274 | 142642 9 | 31:41.68 | 4:11.37 | 142643 | 161504 10 | 35:53.30 | 3:23.10 | 161505 | 176739 11 | 39:16.40 | 3:03.65 | 176740 | 190529 12 | 42:20.30 | 4:18.74 | 190530 | 209953 13 | 46:39.29 | 3:31.21 | 209954 | 225799 14 | 50:10.50 | 2:17.05 | 225800 | 236079 15 | 52:27.55 | 3:26.74 | 236080 | 251603 16 | 55:54.54 | 3:06.53 | 251604 | 265606 17 | 59:01.32 | 6:42.24 | 265607 | 295780 18 | 65:43.56 | 4:51.08 | 295781 | 317613 Характеристики диапазона извлечения и сообщения об ошибках Выбранный диапазон Имя файла G:КиноКино - 12-22.wav Пиковый уровень 99.8 % Скорость извлечения 3.1 X Качество диапазона 99.9 % CRC теста 7314DEB2 CRC копии 7314DEB2 Копирование... OK Ошибок не произошло AccurateRip: сводка Трек 1 отсутствует в базе данных Трек 2 отсутствует в базе данных Трек 3 отсутствует в базе данных Трек 4 отсутствует в базе данных Трек 5 отсутствует в базе данных Трек 6 отсутствует в базе данных Трек 7 отсутствует в базе данных Трек 8 отсутствует в базе данных Трек 9 отсутствует в базе данных Трек 10 отсутствует в базе данных Трек 11 отсутствует в базе данных Трек 12 отсутствует в базе данных Трек 13 отсутствует в базе данных Трек 14 отсутствует в базе данных Трек 15 отсутствует в базе данных Трек 16 отсутствует в базе данных Трек 17 отсутствует в базе данных Трек 18 отсутствует в базе данных Ни одного трека нет в базе AccurateRip Конец отчёта ---- CUETools DB Plugin V2.1.6 disk not present in database Submit result: MNe4YDqAsIZeQ6bzL7zFCVhkVu8- has been uploaded ==== Контрольная сумма отчёта 01A81B0D4816BEDB85C02E3DEE73693FCAEA02334AF8AD53C548F261C985BAA2 ====

Всего файлов в раздаче: 7 
Covers\01.jpg3.30 MB
Covers\02.jpg2.79 MB
Covers\03.jpg875.91 kB
Covers\04.jpg489.28 kB
Кино - 12-22.cue2.74 kB
Кино - 12-22.flac520.91 MB
Кино - 12-22.log7.15 kB

Похожие раздачи по запросу - Кино
2024-03-31 magnet Кино (Виктор Цой) - Дискография (1982-2022) FLAC 15.91 GB ↑ 0 ↓ 0
2024-03-31 magnet Недетское кино / Not Another Teen Movie (2001) BDRip от p3rr3nt | D 1.37 GB ↑ 0 ↓ 0
2024-03-30 magnet Недетское кино / Not Another Teen Movie (2001) BDRip | P 1.45 GB ↑ 0 ↓ 0
2024-03-30 magnet Недетское кино / Not Another Teen Movie (2001) BDRip-AVC от msltel | D, P, P2, A | Театральная версия 3.73 GB ↑ 0 ↓ 0
2024-03-20 magnet Серия - «Кино!!» [117 книг] (2009-2023) FB2 324.12 MB ↑ 0 ↓ 0
2024-03-17 magnet Кино - Это не любовь [Remake] (1985/2024) MP3 88.55 MB ↑ 0 ↓ 0
2024-03-17 magnet Кино - Это не любовь (Remake 2024) [24-bit Hi-Res] (2024) FLAC 839.46 MB ↑ 0 ↓ 0

Комментарии


Зарегистрируйтесь чтобы добавить комментарий
Торрент клиент
byTorrent - программа для загрузки торрент-файлов.

Скачать byTorrent.exe (1,5 МБ)

Скачать byTorrent.zip (0,6 МБ)

Поддержи torrent.by
российских рублей
(300 российских рублей это 4$)

Обратная связь rss

End game ©