↑↓torrent.by
Поиск
Логин:  Регистрация
Пароль:

Вернуть любой ценой / Отпуск в декабре [01-06 из 08] (2018-2024) WEBRip 720p от ExKinoRay

download Скачать торрент-файл   magnet Магнитная ссылка Размер: 8.10 GB Добавлен: 2024-03-23 17:00
Пиры будут получены из сети DHT
Последний сидер был замечен 2024-04-01 12:39
Информация о фильме Название: Вернуть любой ценой / Отпуск в декабре Год выхода: 2018-2024 Жанр: Драма, военный Режиссер: Тимур Алпатов В ролях: Антон Батырев, Сергей Пускепалис, Алексей Кравченко, Артём Алексеев, Дмитрий Калязин, Марина Александрова, Андрей Смоляков, Сергей Соцердотский, Лариса Домаскина, Саёра Сафари, Светлана Корчагина, Дмитрий Смирнов, Александр Левин, Даниил Беломестных, Диана Мкртчян О фильме: СССР, 1983 год. Дина едет на стажировку в медицинский госпиталь в Афганистан и сталкивается не только с ужасами войны, но и с настоящей любовью, которой, кажется нет места на этой земле. Спасенный Диной офицер Герасимов видит в ней смысл своей жизни и готов рискнуть всем, лишь бы быть с ней. Узнав, что Дина в опасности, он отправляется на далекую горную заставу и вступает в опасный бой, чтобы спасти любимую. Страна: Россия Студия: Первый канал Язык:Русский Файл Формат: MKV Качество: WEBRip 720p Видео: MPEG-4 AVC, ~ 3500 Кбит/с, 1280x736, 25 кадр/с Аудио : Русский AC3, 2 ch, 192 Кбит/с RUS Продолжительность: 6 x ~ 00:52:00 Субтитры: Нет Реклама: Отсутствует
[+] МИ General Unique ID : 170485593442081752831124851426944276638 (0x804254B91E279F48946B8CA92D52D89E) Complete name : G:Vernut'.luboji.cenoji.S01.WEB-DLRip.720p.ExKinoRayVernut'.luboji.cenoji.S01.E01.WEB-DLRip.720p.ExKinoRay.mkv Format : Matroska Format version : Version 4 File size : 1.39 GiB Duration : 53 min 45 s Overall bit rate : 3 694 kb/s Encoded date : UTC 2024-02-24 06:32:20 Writing application : mkvmerge v6.9.1 ('Blue Panther') 64bit built on Apr 18 2014 18:23:38 Writing library : libebml v1.3.0 + libmatroska v1.4.1 Video ID : 1 Format : AVC Format/Info : Advanced Video Codec Format profile : High@L4.1 Format settings : CABAC / 9 Ref Frames Format settings, CABAC : Yes Format settings, Reference frames : 9 frames Codec ID : V_MPEG4/ISO/AVC Duration : 53 min 45 s Bit rate : 3 500 kb/s Width : 1 280 pixels Height : 544 pixels Display aspect ratio : 2.35:1 Frame rate mode : Constant Frame rate : 25.000 FPS Color space : YUV Chroma subsampling : 4:2:0 Bit depth : 8 bits Scan type : Progressive Bits/(Pixel*Frame) : 0.201 Stream size : 1.29 GiB (93%) Writing library : x264 core 146 r2538 121396c Encoding settings : cabac=1 / ref=9 / deblock=1:-3:-3 / analyse=0x3:0x113 / me=umh / subme=11 / psy=1 / psy_rd=1.00:0.02 / mixed_ref=1 / me_range=32 / chroma_me=1 / trellis=2 / 8x8dct=1 / cqm=0 / deadzone=21,11 / fast_pskip=1 / chroma_qp_offset=-3 / threads=24 / lookahead_threads=8 / sliced_threads=0 / nr=0 / decimate=0 / interlaced=0 / bluray_compat=0 / constrained_intra=0 / bframes=10 / b_pyramid=2 / b_adapt=2 / b_bias=0 / direct=3 / weightb=1 / open_gop=0 / weightp=2 / keyint=250 / keyint_min=25 / scenecut=40 / intra_refresh=0 / rc_lookahead=60 / rc=2pass / mbtree=1 / bitrate=3500 / ratetol=1.0 / qcomp=0.60 / qpmin=0 / qpmax=69 / qpstep=4 / cplxblur=20.0 / qblur=0.5 / vbv_maxrate=14000 / vbv_bufsize=14000 / nal_hrd=none / filler=0 / ip_ratio=1.40 / aq=3:1.40 Language : Russian Default : Yes Forced : No Color range : Limited Color primaries : BT.709 Transfer characteristics : BT.709 Matrix coefficients : BT.709 Audio ID : 2 Format : AC-3 Format/Info : Audio Coding 3 Commercial name : Dolby Digital Codec ID : A_AC3 Duration : 53 min 45 s Bit rate mode : Constant Bit rate : 192 kb/s Channel(s) : 2 channels Channel layout : L R Sampling rate : 48.0 kHz Frame rate : 31.250 FPS (1536 SPF) Compression mode : Lossy Stream size : 73.8 MiB (5%) Language : Russian Service kind : Complete Main Default : Yes Forced : No
[+] Скриншоты
Релиз от:

Всего файлов в раздаче: 6 
Vernut'.luboji.cenoji.S01.E01.WEB-DLRip.720p.ExKinoRay.mkv1.39 GB
Vernut'.luboji.cenoji.S01.E02.WEB-DLRip.720p.ExKinoRay.mkv1.34 GB
Vernut'.luboji.cenoji.S01.E03.WEB-DLRip.720p.ExKinoRay.mkv1.35 GB
Vernut'.luboji.cenoji.S01.E04.WEB-DLRip.720p.ExKinoRay.mkv1.32 GB
Vernut'.luboji.cenoji.S01.E05.WEB-DLRip.720p.ExKinoRay.mkv1.35 GB
Vernut'.luboji.cenoji.S01.E06.WEB-DLRip.720p.ExKinoRay.mkv1.35 GB

Похожие раздачи по запросу - Вернуть
Вчера magnet Эндрю МакКоннел - Думай как стоик. Философия, которая позволит вернуть контроль над собственным разумом (2023) MP3 204.81 MB ↑ 0 ↓ 0
2024-04-07 magnet Вернуть любой ценой / Отпуск в декабре [S01] (2018-2024) WEBRip-AVC от Generalfilm | КПК 1.81 GB ↑ 0 ↓ 0
2024-04-06 magnet Вернуть любой ценой / Отпуск в декабре [S01] (2018-2024) WEBRip-AVC от Files-x 5.12 GB ↑ 0 ↓ 0
2024-04-06 magnet Вернуть любой ценой / Отпуск в декабре [S01] (2018-2024) WEBRip 720p от ExKinoRay 10.65 GB ↑ 0 ↓ 0
2024-04-05 magnet Вернуть любой ценой / Отпуск в декабре [01-08 из 08] (2018-2024) WEBRip от Files-x 5.09 GB ↑ 0 ↓ 0
2024-04-05 magnet Вернуть любой ценой / Отпуск в декабре [S01] (2018-2024) WEBRip 5.47 GB ↑ 0 ↓ 0
2024-04-05 magnet Вернуть любой ценой / Отпуск в декабре [S01] (2018-2024) WEBRip 1080p 18.19 GB ↑ 0 ↓ 0

Комментарии


Зарегистрируйтесь чтобы добавить комментарий
Торрент клиент
byTorrent - программа для загрузки торрент-файлов.

Скачать byTorrent.exe (1,5 МБ)

Скачать byTorrent.zip (0,6 МБ)

Поддержи torrent.by
российских рублей
(300 российских рублей это 4$)

Обратная связь rss

End game ©