↑↓torrent.by
Поиск
Логин:  Регистрация
Пароль:

Зло [01-10 из 12] (2024) WEB-DLRip 720p от ExKinoRay

download Скачать торрент-файл   magnet Магнитная ссылка Размер: 11.20 GB Добавлен: 2024-03-23 17:00
Пиры будут получены из сети DHT
Последний сидер был замечен 2024-03-31 21:53
Информация о фильме Название: Зло Год выхода: 2024 Жанр: Детектив, криминал Режиссер: Алексей Мурадов В ролях: Даниил Страхов, Евгений Харитонов, Андрей Чернышов, Эдуард Флёров, Павел Трубинер, Александр Устюгов, Любовь Толкалина, Борис Щербаков, Алёна Коломина, Екатерина Олькина, Татьяна Фёдорова (II), Александр Назаров (II), Марина Петренко, Сергей Юшкевич, Евгений Миллер О фильме: По мотивам одноименного романа Эдуарда Хруцкого. 1979 год. Журналист Юрий Ельцов и его друг следователь Игорь Анохин расследуют громкое дело об ограблении известной балерины. Ельцов обращается за помощью к своему старшему брату Игорю, бывшему начальнику МУРа. Брат по своим каналам узнает о причастности к ограблению работника аппарата ЦК. В это же время в Ереване происходит ограбление банка, которое по заданию уголовного авторитета Ястреба совершает специально выпущенный на волю медвежатник Махаон. После ограбления люди Ястреба пытаются убить Махаона и его напарника, но Махаону удается спастись. Он решает обратиться к своему другу детства – журналисту Юрию Ельцову, ведь за Ястребом явно стоит очень влиятельный человек. За попытку разворошить крупное преступное «гнездо под прикрытием» Юрию грозит серьезная опасность. Как принять правильное решение и уберечь близких, когда оказался в центре особого внимания самых влиятельных и опасных людей страны? Юрий вместе с братом и следователем Анохиным сделают все, чтобы раскрыть это запутанное дело. Страна: Россия Студия: Пиманов и партнеры, РЕН ТВ Язык:Русский Файл Формат: MKV Качество: WEB-DLRip 720p Видео: MPEG-4 AVC, ~ 3000 Кбит/с, 1280x736, 25 кадр/с Аудио : Русский AC3, 2 ch, 192 Кбит/с RUS Продолжительность: 10 x ~ 00:50:00 Субтитры: Нет Реклама: Отсутствует
[+] МИ General Unique ID : 207592791506912135799569596285983038002 (0x9C2CEAD6CED88AA1950745A99AE29A32) Complete name : G:Zlo.S01.WEB-DLRip.720p.ExKinoRayZlo.S01.E01.WEB-DLRip.720p.ExKinoRay.mkv Format : Matroska Format version : Version 4 File size : 1.10 GiB Duration : 49 min 23 s Overall bit rate : 3 193 kb/s Encoded date : UTC 2024-02-23 13:16:34 Writing application : mkvmerge v6.9.1 ('Blue Panther') 64bit built on Apr 18 2014 18:23:38 Writing library : libebml v1.3.0 + libmatroska v1.4.1 Video ID : 1 Format : AVC Format/Info : Advanced Video Codec Format profile : High@L4.1 Format settings : CABAC / 9 Ref Frames Format settings, CABAC : Yes Format settings, Reference frames : 9 frames Codec ID : V_MPEG4/ISO/AVC Duration : 49 min 23 s Bit rate : 3 000 kb/s Width : 1 280 pixels Height : 536 pixels Display aspect ratio : 2.40:1 Frame rate mode : Constant Frame rate : 25.000 FPS Color space : YUV Chroma subsampling : 4:2:0 Bit depth : 8 bits Scan type : Progressive Bits/(Pixel*Frame) : 0.175 Stream size : 1.01 GiB (92%) Writing library : x264 core 146 r2538 121396c Encoding settings : cabac=1 / ref=9 / deblock=1:-3:-3 / analyse=0x3:0x113 / me=umh / subme=11 / psy=1 / psy_rd=1.00:0.02 / mixed_ref=1 / me_range=32 / chroma_me=1 / trellis=2 / 8x8dct=1 / cqm=0 / deadzone=21,11 / fast_pskip=1 / chroma_qp_offset=-3 / threads=24 / lookahead_threads=8 / sliced_threads=0 / nr=0 / decimate=0 / interlaced=0 / bluray_compat=0 / constrained_intra=0 / bframes=10 / b_pyramid=2 / b_adapt=2 / b_bias=0 / direct=3 / weightb=1 / open_gop=0 / weightp=2 / keyint=250 / keyint_min=25 / scenecut=40 / intra_refresh=0 / rc_lookahead=60 / rc=2pass / mbtree=1 / bitrate=3000 / ratetol=1.0 / qcomp=0.60 / qpmin=0 / qpmax=69 / qpstep=4 / cplxblur=20.0 / qblur=0.5 / vbv_maxrate=14000 / vbv_bufsize=14000 / nal_hrd=none / filler=0 / ip_ratio=1.40 / aq=3:1.40 Language : Russian Default : Yes Forced : No Color range : Limited Color primaries : BT.709 Transfer characteristics : BT.709 Matrix coefficients : BT.709 Audio ID : 2 Format : AC-3 Format/Info : Audio Coding 3 Commercial name : Dolby Digital Codec ID : A_AC3 Duration : 49 min 23 s Bit rate mode : Constant Bit rate : 192 kb/s Channel(s) : 2 channels Channel layout : L R Sampling rate : 48.0 kHz Frame rate : 31.250 FPS (1536 SPF) Compression mode : Lossy Stream size : 67.8 MiB (6%) Language : Russian Service kind : Complete Main Default : Yes Forced : No
[+] Скриншоты
Релиз от:

Всего файлов в раздаче: 10 
Zlo.S01.E01.WEB-DLRip.720p.ExKinoRay.mkv1.10 GB
Zlo.S01.E02.WEB-DLRip.720p.ExKinoRay.mkv1.12 GB
Zlo.S01.E03.WEB-DLRip.720p.ExKinoRay.mkv1.13 GB
Zlo.S01.E04.WEB-DLRip.720p.ExKinoRay.mkv1.12 GB
Zlo.S01.E05.WEB-DLRip.720p.ExKinoRay.mkv1.13 GB
Zlo.S01.E06.WEB-DLRip.720p.ExKinoRay.mkv1.11 GB
Zlo.S01.E07.WEB-DLRip.720p.ExKinoRay.mkv1.12 GB
Zlo.S01.E08.WEB-DLRip.720p.ExKinoRay.mkv1.13 GB
Zlo.S01.E09.WEB-DLRip.720p.ExKinoRay.mkv1.13 GB
Zlo.S01.E10.WEB-DLRip.720p.ExKinoRay.mkv1.12 GB

Похожие раздачи по запросу - Зло
2024-04-05 magnet Сандроне Дациери - Зло, которое творят люди (2024) МР3 1.12 GB ↑ 0 ↓ 0
2024-04-05 magnet Зло [S01] (2024) WEB-DLRip от Files-x 7.45 GB ↑ 0 ↓ 0
2024-04-01 magnet Зло [S01] (2024) WEB-DLRip-AVC от Generalfilm | КПК 2.67 GB ↑ 0 ↓ 0
2024-03-30 magnet Зло [S01] (2024) WEB-DLRip от Generalfilm | КПК 2.24 GB ↑ 0 ↓ 0
2024-03-29 magnet Зло [S01] (2024) WEB-DLRip 7.76 GB ↑ 0 ↓ 0
2024-03-29 magnet Зло [S01] (2024) WEB-DLRip-AVC от Files-x 7.53 GB ↑ 0 ↓ 0
2024-03-29 magnet Зло [S01] (2024) WEB-DL 1080p 17.56 GB ↑ 0 ↓ 0

Комментарии


Зарегистрируйтесь чтобы добавить комментарий
Торрент клиент
byTorrent - программа для загрузки торрент-файлов.

Скачать byTorrent.exe (1,5 МБ)

Скачать byTorrent.zip (0,6 МБ)

Поддержи torrent.by
российских рублей
(300 российских рублей это 4$)

Обратная связь rss

End game ©