↑↓torrent.by
Поиск
Логин:  Регистрация
Пароль:

Аргайл: Супершпион / Argylle (2024) WEB-DL 720p от селезень | D

download Скачать торрент-файл   magnet Магнитная ссылка Размер: 4.44 GB Добавлен: 2024-03-23 17:00
Пиры будут получены из сети DHT
Последний сидер был замечен вчера в 23:34
Информация о фильме Название: Аргайл: Супершпион Оригинальное название: Argylle Год выхода: 2024 Жанр: боевик, комедия Режиссер: Мэттью Вон В ролях: София Бутелла, Генри Кавилл, Дуа Липа, Брайс Даллас Ховард, Сэм Рокуэлл, Джон Сина, Сэмюэл Л. Джексон, Брайан Крэнстон, Кэтрин О`Хара, Ариана ДеБос О фильме: Элли Конвей — писательница, живущая в затворничестве. Серия ее шпионских романов пользуется бешеной популярностью, но для Элли нет ничего лучше, чем домашний вечер в компании компьютера и кота Альфи. Но однажды Элли обнаруживает, что ее сюжеты о секретном агенте с позывным Аргайл и его миссии по раскрытию глобального шпионского синдиката не такие уж и вымышленные. Когда в ее жизни появляется Эйден — шпион, утверждающий, что должен спасти Элли от похищения или чего похуже, героиня со своим котом оказывается втянута в историю, которой позавидовал бы любой писатель. «Аргайл: Супершпион» — шпионский боевик с Брайс Даллас Ховард и Генри Кавиллом по мотивам одноименного романа Элли Конвей. Выпущено: Великобритания, США / Apple Original Films, Apple Studios, Cloudy Productions Продолжительность: 02:19:00 Перевод: Дублированный (официальный) | Bravo Records Georgia / Movie Dubbing Субтитры: Русские (Forced, Full, SDH), Английские (Full, SDH) Файл Формат: Matroska Качество: WEB-DL 720p | AMZN Видео: 1248x520 at 23.976 fps, MPEG-4 AVC, ~3351 kbps Аудио 1: AC3, 6 ch, ~448 kbps - | Русский | Аудио 2: E-АС3+Atmos, 6 ch, 48.0 kHz, 768 kb/s - | Английский | Формат субтитров: softsub (SRT)
[+] M/IGeneral Unique ID : 137215432810893068403634554370379936856 (0x673ABB28999357215863D318CF16F458) Complete name : T:Argylle.2024.DUB.AMZN.WEB-DL.720p.x264.seleZen.mkv Format : Matroska Format version : Version 4 File size : 4.44 GiB Duration : 2 h 19 min Overall bit rate : 4 569 kb/s Frame rate : 23.976 FPS Movie name : Argylle.2024.DUB.AMZN.WEB-DL.720p.x264.seleZen Encoded date : 2024-03-23 07:17:09 UTC Writing application : mkvmerge v83.0 ('Circle Of Friends') 64-bit Writing library : libebml v1.4.5 + libmatroska v1.7.1 Cover : Yes Attachments : cover.jpg / small_cover.jpg Video ID : 1 Format : AVC Format/Info : Advanced Video Codec Format profile : High@L3.1 Format settings : CABAC / 4 Ref Frames Format settings, CABAC : Yes Format settings, Reference : 4 frames Codec ID : V_MPEG4/ISO/AVC Duration : 2 h 19 min Bit rate mode : Constant Bit rate : 3 351 kb/s Nominal bit rate : 4 000 kb/s Width : 1 248 pixels Height : 520 pixels Display aspect ratio : 2.40:1 Frame rate mode : Constant Frame rate : 23.976 (24000/1001) FPS Color space : YUV Chroma subsampling : 4:2:0 Bit depth : 8 bits Scan type : Progressive Bits/(Pixel*Frame) : 0.215 Stream size : 3.25 GiB (73%) Title : -=DoMiNo=- Language : English (GB) Default : Yes Forced : No Color range : Limited Color primaries : BT.709 Transfer characteristics : BT.709 Matrix coefficients : BT.709 Audio #1 ID : 2 Format : AC-3 Format/Info : Audio Coding 3 Commercial name : Dolby Digital Codec ID : A_AC3 Duration : 2 h 18 min Bit rate mode : Constant Bit rate : 448 kb/s Channel(s) : 6 channels Channel layout : L R C LFE Ls Rs Sampling rate : 48.0 kHz Frame rate : 31.250 FPS (1536 SPF) Compression mode : Lossy Stream size : 445 MiB (10%) Title : Dub_Bravo Records Georgia / Movie Dubbing Language : Russian Service kind : Complete Main Default : Yes Forced : No Audio #2 ID : 3 Format : E-AC-3 JOC Format/Info : Enhanced AC-3 with Joint Object Coding Commercial name : Dolby Digital Plus with Dolby Atmos Codec ID : A_EAC3 Duration : 2 h 18 min Bit rate mode : Constant Bit rate : 768 kb/s Channel(s) : 6 channels Channel layout : L R C LFE Ls Rs Sampling rate : 48.0 kHz Frame rate : 31.250 FPS (1536 SPF) Compression mode : Lossy Stream size : 763 MiB (17%) Title : Original Language : English Service kind : Complete Main Default : No Forced : No Complexity index : 16 Number of dynamic objects : 15 Bed channel count : 1 channel Bed channel configuration : LFE Text #1 ID : 4 Format : UTF-8 Codec ID : S_TEXT/UTF8 Codec ID/Info : UTF-8 Plain Text Duration : 2 h 11 min Bit rate : 2 b/s Frame rate : 0.008 FPS Count of elements : 62 Stream size : 2.34 KiB (0%) Title : Forced Language : Russian Default : No Forced : No Text #2 ID : 5 Format : UTF-8 Codec ID : S_TEXT/UTF8 Codec ID/Info : UTF-8 Plain Text Duration : 2 h 17 min Bit rate : 84 b/s Frame rate : 0.215 FPS Count of elements : 1776 Stream size : 84.9 KiB (0%) Title : Full Language : Russian Default : No Forced : No Text #3 ID : 6 Format : UTF-8 Codec ID : S_TEXT/UTF8 Codec ID/Info : UTF-8 Plain Text Duration : 2 h 18 min Bit rate : 96 b/s Frame rate : 0.247 FPS Count of elements : 2046 Stream size : 97.7 KiB (0%) Title : SDH Language : Russian Default : No Forced : No Text #4 ID : 7 Format : UTF-8 Codec ID : S_TEXT/UTF8 Codec ID/Info : UTF-8 Plain Text Duration : 2 h 10 min Bit rate : 56 b/s Frame rate : 0.219 FPS Count of elements : 1714 Stream size : 54.1 KiB (0%) Title : Full Language : English Default : No Forced : No Text #5 ID : 8 Format : UTF-8 Codec ID : S_TEXT/UTF8 Codec ID/Info : UTF-8 Plain Text Duration : 2 h 15 min Bit rate : 65 b/s Frame rate : 0.254 FPS Count of elements : 2060 Stream size : 64.8 KiB (0%) Title : SDH Language : English Default : No Forced : No Menu 00:00:00.000 : en:Main
Релиз: Присоединяйся к: Кликай на баннеры.

Всего файлов в раздаче: 1 
Argylle.2024.DUB.AMZN.WEB-DL.720p.x264.seleZen.mkv4.44 GB

Похожие раздачи по запросу - Аргайл
2024-03-25 magnet Аргайл: Супершпион / Argylle (2024) WEB-DL 2160p | 4K | HDR | Dolby Vision Profile 8 | D, P, P2 27.37 GB ↑ 0 ↓ 1
2024-03-23 magnet Аргайл: Супершпион / Argylle (2024) WEB-DL 2160p | 4K | SDR | D, P, P2 17.70 GB ↑ 0 ↓ 1
2024-03-23 magnet Аргайл: Супершпион / Argylle (2024) WEB-DLRip от toxics & селезень | D 2.18 GB ↑ 0 ↓ 0
2024-03-23 magnet Аргайл: Супершпион / Argylle (2024) WEB-DLRip от MegaPeer | D 1.46 GB ↑ 0 ↓ 0
2024-03-23 magnet Аргайл: Супершпион / Argylle (2024) WEB-DLRip-AVC от DoMiNo & селезень | D 2.14 GB ↑ 0 ↓ 0
2024-03-23 magnet Аргайл: Супершпион / Argylle (2024) WEB-DLRip 1080p от селезень | D 10.30 GB ↑ 0 ↓ 0
2024-03-23 magnet Аргайл: Супершпион / Argylle (2024) WEB-DL 1080p от EniaHD | D, P, P2 11.82 GB ↑ 0 ↓ 1

Кто качает (только для создателя раздачи и модераторов): Локальные пиры отсутствуют

Комментарии


Зарегистрируйтесь чтобы добавить комментарий
Торрент клиент
byTorrent - программа для загрузки торрент-файлов.

Скачать byTorrent.exe (1,5 МБ)

Скачать byTorrent.zip (0,6 МБ)

Поддержи torrent.by
российских рублей
(300 российских рублей это 4$)

Обратная связь rss

End game ©