↑↓torrent.by
Поиск
Логин:  Регистрация
Пароль:

Tim McGraw - Damn Country Music [24-bit Hi-Res, Deluxe Edition] (2015) FLAC

download Скачать торрент-файл   magnet Магнитная ссылка Размер: 1.19 GB Добавлен: 2024-03-24 05:00
Пиры будут получены из сети DHT
Последний сидер был замечен 2024-03-24 17:22
Название: Damn Country Music (Deluxe Edition) Исполнитель: Tim McGraw Год: 2015 Жанр: Blues, Country, Folk Издатель (лейбл): Продолжительность: 00:53:16 Формат/Кодек: FLAC Тип рипа: Tracks Битрейт аудио: Lossless Разрядность: 24 Bit/96 kHz
[+] Трек-лист 01. Here Tonight (00:03:50) 02. Losin' You (00:04:23) 03. How I'll Always Be (00:03:34) 04. Damn Country Music (00:03:05) 05. Love Runs (00:04:10) 06. What You're Lookin' For (00:03:57) 07. Top Of The World (00:03:54) 08. Don't Make Me Feel At Home (00:03:40) 09. Want You Back (00:04:01) 10. California (00:03:27) 11. Humble And Kind (00:04:20) 12. Everybody's Lookin' (00:04:08) 13. Kiss A Girl (00:03:02) 14. Country And Western (00:03:45)
[+] DRM foobar2000 1.5.5 / Замер динамического диапазона (DR) 1.1.1 ------------------------------------------------------------------------------- Анализ: Tim Mcgraw / Damn Country Music -------------------------------------------------------------------------------- DR Пики RMS Продолжительность трека -------------------------------------------------------------------------------- DR6 -0.20 дБ -8.29 дБ 3:50 01-Here Tonight DR6 -0.22 дБ -7.56 дБ 4:23 02-Losin' You DR6 -0.28 дБ -7.96 дБ 3:34 03-How I'll Always Be DR6 -0.28 дБ -7.56 дБ 3:05 04-Damn Country Music DR6 -0.24 дБ -7.60 дБ 4:10 05-Love Runs DR6 -0.27 дБ -7.98 дБ 3:57 06-What You're Lookin' For DR7 -0.21 дБ -8.70 дБ 3:54 07-Top Of The World DR6 -0.27 дБ -8.26 дБ 3:40 08-Don't Make Me Feel At Home DR6 -0.27 дБ -8.71 дБ 4:01 09-Want You Back DR6 -0.26 дБ -7.86 дБ 3:27 10-California DR7 -0.28 дБ -9.47 дБ 4:20 11-Humble And Kind DR7 -0.26 дБ -8.48 дБ 4:08 12-Everybody's Lookin' DR6 -0.20 дБ -8.98 дБ 3:02 13-Kiss A Girl DR6 -0.25 дБ -7.69 дБ 3:45 14-Country And Western -------------------------------------------------------------------------------- Количество треков: 14 Реальные значения DR: DR6 Частота: 96000 Гц Каналов: 2 Разрядность: 24 Битрейт: 3244 кбит/с Кодек: FLAC ================================================================================
Время раздачи: 24/7 (минимум до появления первых 3-5 скачавших, на раздачи не возвращаюсь) Первое правило участника файлообмена: "Скачал сам - дай скачать другому!"

Всего файлов в раздаче: 15 
01. Here Tonight.flac84.01 MB
02. Losin' You.flac104.61 MB
03. How I'll Always Be.flac82.21 MB
04. Damn Country Music.flac70.30 MB
05. Love Runs.flac95.23 MB
06. What You're Lookin' For.flac89.22 MB
07. Top Of The World.flac88.96 MB
08. Don't Make Me Feel At Home.flac82.21 MB
09. Want You Back.flac92.73 MB
10. California.flac76.75 MB
Показать все файлы

Похожие раздачи по запросу - Tim
2024-03-24 magnet Tim McGraw - Sundown Heaven Town [24-bit Hi-Res, Deluxe Edition] (2014) FLAC 1.59 GB ↑ 0 ↓ 0
2024-03-23 magnet Tim McGraw - Two Lanes Of Freedom [24-bit Hi-Res, Accelerated Deluxe] (2013) FLAC 1.35 GB ↑ 0 ↓ 0

Комментарии


Зарегистрируйтесь чтобы добавить комментарий
Торрент клиент
byTorrent - программа для загрузки торрент-файлов.

Скачать byTorrent.exe (1,5 МБ)

Скачать byTorrent.zip (0,6 МБ)

Поддержи torrent.by
российских рублей
(300 российских рублей это 4$)

Обратная связь rss

End game ©