↑↓torrent.by
Поиск
Логин:  Регистрация
Пароль:

Tim McGraw - Sundown Heaven Town [24-bit Hi-Res, Deluxe Edition] (2014) FLAC

download Скачать торрент-файл   magnet Магнитная ссылка Размер: 1.59 GB Добавлен: 2024-03-24 05:00
Пиры будут получены из сети DHT
Последний сидер был замечен 2024-03-24 17:22
Название: Sundown Heaven Town (Deluxe Edition) Исполнитель: Tim McGraw Год: 2014 Жанр: Blues, Country, Folk Издатель (лейбл): Big Machine Продолжительность: 01:10:09 Формат/Кодек: FLAC Тип рипа: Tracks Битрейт аудио: Lossless Разрядность: 24 Bit/96 kHz
[+] Трек-лист 01. Overrated (00:03:28) 02. City Lights (00:04:19) 03. Shotgun Rider (00:03:57) 04. Dust (00:03:46) 05. Diamond Rings And Old Barstools (00:03:18) 06. Words Are Medicine (00:04:32) 07. Sick Of Me (00:04:06) 08. Meanwhile Back At Mama's (00:03:49) 09. Keep On Truckin' (00:03:06) 10. Last Turn Home (00:03:57) 11. Portland, Maine (00:03:43) 12. Lookin' For That Girl (00:04:20) 13. Still On The Line (00:03:53) 14. Lincoln Continentals And Cadillacs (00:04:20) 15. Kids Today (00:04:13) 16. I'm Feelin' You (00:03:27) 17. The View (00:03:43) 18. Black Jacket (00:04:12)
[+] DRM foobar2000 1.5.5 / Замер динамического диапазона (DR) 1.1.1 ------------------------------------------------------------------------------- Анализ: Tim Mcgraw / Sundown Heaven Town -------------------------------------------------------------------------------- DR Пики RMS Продолжительность трека -------------------------------------------------------------------------------- DR6 -0.27 дБ -8.76 дБ 3:28 01-Overrated DR6 -0.21 дБ -8.08 дБ 4:19 02-City Lights DR6 -0.22 дБ -7.49 дБ 3:57 03-Shotgun Rider DR7 -0.22 дБ -8.29 дБ 3:46 04-Dust DR6 -0.28 дБ -8.88 дБ 3:18 05-Diamond Rings And Old Barstools DR6 -0.29 дБ -8.32 дБ 4:32 06-Words Are Medicine DR6 -0.26 дБ -8.97 дБ 4:06 07-Sick Of Me DR7 -0.29 дБ -9.50 дБ 3:49 08-Meanwhile Back At Mama's DR6 -0.23 дБ -7.76 дБ 3:06 09-Keep On Truckin' DR5 -0.20 дБ -7.76 дБ 3:57 10-Last Turn Home DR8 -0.29 дБ -10.35 дБ 3:43 11-Portland, Maine DR7 -0.23 дБ -8.09 дБ 4:20 12-Lookin' For That Girl DR6 -0.23 дБ -7.81 дБ 3:53 13-Still On The Line DR6 -0.21 дБ -7.26 дБ 4:20 14-Lincoln Continentals And Cadillacs DR5 -0.26 дБ -7.61 дБ 4:13 15-Kids Today DR6 -0.26 дБ -7.79 дБ 3:27 16-I'm Feelin' You DR7 -0.27 дБ -8.95 дБ 3:43 17-The View DR6 -0.25 дБ -7.70 дБ 4:12 18-Black Jacket -------------------------------------------------------------------------------- Количество треков: 18 Реальные значения DR: DR6 Частота: 96000 Гц Каналов: 2 Разрядность: 24 Битрейт: 3280 кбит/с Кодек: FLAC ================================================================================
Время раздачи: 24/7 (минимум до появления первых 3-5 скачавших, на раздачи не возвращаюсь) Первое правило участника файлообмена: "Скачал сам - дай скачать другому!"

Всего файлов в раздаче: 19 
01. Overrated.flac80.99 MB
02. City Lights.flac100.87 MB
03. Shotgun Rider.flac90.75 MB
04. Dust.flac90.05 MB
05. Diamond Rings And Old Barstools.flac74.21 MB
06. Words Are Medicine.flac104.68 MB
07. Sick Of Me.flac95.81 MB
08. Meanwhile Back At Mama's.flac87.71 MB
09. Keep On Truckin'.flac73.74 MB
10. Last Turn Home.flac88.96 MB
Показать все файлы

Похожие раздачи по запросу - Tim
2024-03-24 magnet Tim McGraw - Damn Country Music [24-bit Hi-Res, Deluxe Edition] (2015) FLAC 1.19 GB ↑ 0 ↓ 0
2024-03-23 magnet Tim McGraw - Two Lanes Of Freedom [24-bit Hi-Res, Accelerated Deluxe] (2013) FLAC 1.35 GB ↑ 0 ↓ 0

Комментарии


Зарегистрируйтесь чтобы добавить комментарий
Торрент клиент
byTorrent - программа для загрузки торрент-файлов.

Скачать byTorrent.exe (1,5 МБ)

Скачать byTorrent.zip (0,6 МБ)

Поддержи torrent.by
российских рублей
(300 российских рублей это 4$)

Обратная связь rss

End game ©