↑↓torrent.by
Поиск
Логин:  Регистрация
Пароль:

Ярость / Outrage (2023) WEB-DL 1080p от ELEKTRI4KA | D

download Скачать торрент-файл   magnet Магнитная ссылка Размер: 5.17 GB Добавлен: 2024-03-24 05:00
Пиры будут получены из сети DHT
Последний сидер был замечен 2024-04-06 13:49
Информация о фильме Название: Ярость Оригинальное название: Outrage Год выхода: 2023 Жанр: триллер Режиссер: Мэтью Бонсон В ролях: Жюли Гайе, Аделаида Кейн, Джей О. Сэндерс, Клеменс Шик, Мануэль Коши, Виктор Понтекорво, Жозиан Пинсон, Виктор Ассье, Матяш Саймон, Аликс Гавуа, Фредерик Матона О фильме: В роскошном французском замке собираются важные политики, популярные медийные фигуры и журналисты международных СМИ, чтобы обсудить будущее страны. Среди гостей и кандидатка на пост президента Франции. Но никто из них не подозревает, что этим же вечером им придется заплатить за смерть простого студента. Последователь неонацистской идеологии Макс Моро открыл стрельбу в общественном месте и был убит полицией. Тихая и услужливая горничная Алиса — мать погибшего, и она приготовила этим именитым персонам блюда со специальным ингредиентом, ведь именно их женщина винит в смерти сына. Выпущено: США, Швейцария / Madpark Films Продолжительность: 01:18:55 Озвучивание: Дублированное | Официальное Файл Формат: MKV Качество: WEB-DL 1080p Видео: MPEG-4 AVC, ~8250 Kb/s, 1920x1080 Аудио: Russian: AC3, 384 Kb/s (6 ch) / E-AC3, 384 Kb/s (6 ch), English: AC3, 384 Kb/s (6 ch) Субтитры: English (Forced, Full) Релиз группы: &  | Мы в Telegram:
[+] MediaInfo:Complete name : Yarost.2023.WEB-DL.1080p.ELEKTRI4KA.UNIONGANG.mkv Format : Matroska Format version : Version 4 File size : 5.17 GiB Duration : 1 h 18 min Overall bit rate mode : Variable Overall bit rate : 9 381 kb/s Frame rate : 25.000 FPS Movie name : Yarost.2023.WEB-DL.1080p.ELEKTRI4KA.UNIONGANG. Encoded date : 2024-03-23 10:30:59 UTC Writing application : mkvmerge v8.3.0 ('Over the Horizon') 64bit Writing library : libebml v1.3.1 + libmatroska v1.4.2 Video ID : 1 Format : AVC Format/Info : Advanced Video Codec Format profile : High@L4 Format settings : CABAC / 4 Ref Frames Format settings, CABAC : Yes Format settings, Reference frames : 4 frames Codec ID : V_MPEG4/ISO/AVC Duration : 1 h 18 min Bit rate mode : Variable Bit rate : 8 250 kb/s Maximum bit rate : 12.4 Mb/s Width : 1 920 pixels Height : 1 080 pixels Display aspect ratio : 16:9 Frame rate mode : Constant Frame rate : 25.000 FPS Color space : YUV Chroma subsampling : 4:2:0 Bit depth : 8 bits Scan type : Progressive Bits/(Pixel*Frame) : 0.159 Stream size : 4.54 GiB (88%) Writing library : x264 core 157 r2965 861cec4 Encoding settings : cabac=1 / ref=4 / deblock=1:0:0 / analyse=0x3:0x113 / me=hex / subme=7 / psy=1 / psy_rd=1.00:0.00 / mixed_ref=1 / me_range=16 / chroma_me=1 / trellis=1 / 8x8dct=1 / cqm=0 / deadzone=21,11 / fast_pskip=1 / chroma_qp_offset=-2 / threads=34 / lookahead_threads=5 / sliced_threads=0 / nr=0 / decimate=1 / interlaced=0 / bluray_compat=0 / constrained_intra=0 / bframes=3 / b_pyramid=2 / b_adapt=1 / b_bias=0 / direct=1 / weightb=1 / open_gop=0 / weightp=2 / keyint=100 / keyint_min=100 / scenecut=40 / intra_refresh=0 / rc_lookahead=40 / rc=2pass / mbtree=1 / bitrate=8250 / ratetol=1.0 / qcomp=0.60 / qpmin=0 / qpmax=69 / qpstep=4 / cplxblur=20.0 / qblur=0.5 / vbv_maxrate=12375 / vbv_bufsize=6187 / nal_hrd=vbr / filler=0 / ip_ratio=1.40 / aq=1:1.00 Default : Yes Forced : No Color range : Limited Color primaries : BT.709 Transfer characteristics : BT.709 Matrix coefficients : BT.709 Audio #1 ID : 2 Format : AC-3 Format/Info : Audio Coding 3 Commercial name : Dolby Digital Codec ID : A_AC3 Duration : 1 h 18 min Bit rate mode : Constant Bit rate : 384 kb/s Channel(s) : 6 channels Channel layout : L R C LFE Ls Rs Sampling rate : 48.0 kHz Frame rate : 31.250 FPS (1536 SPF) Compression mode : Lossy Stream size : 217 MiB (4%) Title : DUB AC3 Language : Russian Service kind : Complete Main Default : Yes Forced : Yes Audio #2 ID : 3 Format : E-AC-3 Format/Info : Enhanced AC-3 Commercial name : Dolby Digital Plus Codec ID : A_EAC3 Duration : 1 h 18 min Bit rate mode : Constant Bit rate : 384 kb/s Channel(s) : 6 channels Channel layout : L R C LFE Ls Rs Sampling rate : 48.0 kHz Frame rate : 31.250 FPS (1536 SPF) Compression mode : Lossy Stream size : 217 MiB (4%) Title : DUB EAC3 Language : Russian Service kind : Complete Main Default : No Forced : No Audio #3 ID : 4 Format : AC-3 Format/Info : Audio Coding 3 Commercial name : Dolby Digital Codec ID : A_AC3 Duration : 1 h 18 min Bit rate mode : Constant Bit rate : 384 kb/s Channel(s) : 6 channels Channel layout : L R C LFE Ls Rs Sampling rate : 48.0 kHz Frame rate : 31.250 FPS (1536 SPF) Compression mode : Lossy Stream size : 217 MiB (4%) Title : Original Language : English Service kind : Complete Main Default : No Forced : No Text #1 ID : 5 Format : UTF-8 Codec ID : S_TEXT/UTF8 Codec ID/Info : UTF-8 Plain Text Duration : 1 h 13 min Bit rate : 8 b/s Frame rate : 0.037 FPS Count of elements : 165 Stream size : 4.47 KiB (0%) Title : Forced Language : English Default : No Forced : No Text #2 ID : 6 Format : UTF-8 Codec ID : S_TEXT/UTF8 Codec ID/Info : UTF-8 Plain Text Duration : 1 h 13 min Bit rate : 47 b/s Frame rate : 0.186 FPS Count of elements : 822 Stream size : 25.6 KiB (0%) Language : English Default : No Forced : No
[+] Скриншоты

Всего файлов в раздаче: 1 
Yarost.2023.WEB-DL.1080p.ELEKTRI4KA.UNIONGANG.mkv5.17 GB

Похожие раздачи по запросу - Ярость
2024-04-06 magnet Ярость в клетке / Caged Fury (1990) HDRip | P2, L1 745.97 MB ↑ 0 ↓ 0
2024-03-24 magnet Ярость / Outrage (2023) WEB-DLRip от ELEKTRI4KA | D | Локализованная версия 1.37 GB ↑ 0 ↓ 0
2023-04-08 magnet Шазам! Ярость богов / Shazam! Fury of the Gods (2023) WEB-DLRip от MegaPeer | D 2.19 GB ↑ 0 ↓ 0

Комментарии


Зарегистрируйтесь чтобы добавить комментарий
Торрент клиент
byTorrent - программа для загрузки торрент-файлов.

Скачать byTorrent.exe (1,5 МБ)

Скачать byTorrent.zip (0,6 МБ)

Поддержи torrent.by
российских рублей
(300 российских рублей это 4$)

Обратная связь rss

End game ©