↑↓torrent.by
Поиск
Логин:  Регистрация
Пароль:

Территория зла / Land of Bad (2024) WEB-DL-HEVC 2160p | 4K | HDR | P2 | ViruseProject

download Скачать торрент-файл   magnet Магнитная ссылка Размер: 19.95 GB Добавлен: 2024-03-24 05:00
Пиры будут получены из сети DHT
Последний сидер был замечен 2024-04-08 18:05
Информация о фильме Название: Территория зла Оригинальное название: Land of Bad Год выхода: 2024 Жанр: боевик, триллер Режиссер: Уильям Юбэнк В ролях: Лиам Хемсворт, Рассел Кроу, Люк Хемсворт, Рики Уиттл, Майло Вентимилья, Chika Ikogwe, Дэниэл Макферсон, Роберт Рабия, Джек Финстерер, Chris Masters Mah О фильме: Отряд американского спецназа тайно высаживается на территорию Филиппин для выполнения секретной миссии по спасению важного заложника. С базы поддержку с воздуха осуществляют оператор беспилотника Рипер и его напарница. Вскоре ситуация принимает неожиданный оборот, и бойцы вынуждены вступить в бой с превосходящими силами противника. После ожесточённого боя в живых остаётся лишь сержант Кинни — молодой морпех, отвечающий за связь с Рипером и координацию его действий. Для Кинни это лишь вторая боевая миссия, и теперь парню придётся в одиночку пробираться по вражеской территории к точке эвакуации, а Рипер становится его единственной надеждой на спасение. Страна: США Студия: Volition Media Partners, Broken Open Pictures, Highland Film Group (HFG) Продолжительность: 01:53:31 Перевод: Профессиональный (двухголосый, закадровый) | ViruseProject 18 + Файл Качество: WEB-DL-HEVC 2160p | 4K | HDR Видео: HEVC/H.265, 3836x1604, ~23,9 Мbps, 23,976 fps Звук: Аудио 1: AC3, 6 ch, 640 Kbps - Русский Аудио 2: E-AC3, 6 ch, 640 Kbps - Английский Субтитры: Английские Семпл
[+] MediainfoОбщее Уникальный идентификатор : 249280289725910022061009758039795930863 (0xBB89A3301C6A769C62A4A2D44A5196EF) Полное имя : Land of Bad.2024.HDR.WEB-DL.2160p.W.mkv Формат : Matroska Версия формата : Version 4 Размер файла : 20,0 Гбайт Продолжительность : 1 ч. 53 м. Общий поток : 25,2 Мбит/сек Частота кадров : 23,976 кадра/сек Название фильма : Land of Bad.2024.HDR.WEB-DL.2160p.W Дата кодирования : 2024-03-21 18:11:14 UTC Программа кодирования : mkvmerge v23.0.0 ('The Bride Said No') 64-bit Библиотека кодирования : libebml v1.3.6 + libmatroska v1.4.9 Видео Идентификатор : 1 Формат : HEVC Формат/Информация : High Efficiency Video Coding Профиль формата : Main 10@L5@High HDR format : SMPTE ST 2094 App 4, Version 1, HDR10+ Profile B compatible Идентификатор кодека : V_MPEGH/ISO/HEVC Продолжительность : 1 ч. 53 м. Битрейт : 23,9 Мбит/сек Ширина : 3 836 пикселей Высота : 1 604 пикселя Соотношение сторон : 2,39:1 Режим частоты кадров : Постоянный Частота кадров : 23,976 кадра/сек Цветовое пространство : YUV Субдискретизация насыщенности : 4:2:0 (Type 2) Битовая глубина : 10 бит Бит/(Пиксели*Кадры) : 0.162 Размер потока : 18,9 Гбайт (95%) Язык : English Default : Да Forced : Нет Цветовой диапазон : Limited Основные цвета : BT.2020 Характеристики трансфера : PQ Коэффициенты матрицы : BT.2020 non-constant Mastering display color primaries : Display P3 Mastering display luminance : min: 0.0050 cd/m2, max: 1000 cd/m2 Maximum Content Light Level : 1234 cd/m2 Maximum Frame-Average Light Level : 438 cd/m2 Аудио #1 Идентификатор : 2 Формат : AC-3 Формат/Информация : Audio Coding 3 Коммерческое название : Dolby Digital Идентификатор кодека : A_AC3 Продолжительность : 1 ч. 53 м. Вид битрейта : Постоянный Битрейт : 640 Кбит/сек Каналы : 6 каналов Channel layout : L R C LFE Ls Rs Частота : 48,0 КГц Частота кадров : 31,250 кадров/сек (1536 SPF) Метод сжатия : С потерями Размер потока : 519 Мбайт (3%) Заголовок : DVO_ViruseProject Язык : Russian Service kind : Complete Main Default : Да Forced : Нет Аудио #2 Идентификатор : 3 Формат : E-AC-3 Формат/Информация : Enhanced AC-3 Коммерческое название : Dolby Digital Plus Идентификатор кодека : A_EAC3 Продолжительность : 1 ч. 53 м. Вид битрейта : Постоянный Битрейт : 640 Кбит/сек Каналы : 6 каналов Channel layout : L R C LFE Ls Rs Частота : 48,0 КГц Частота кадров : 31,250 кадров/сек (1536 SPF) Метод сжатия : С потерями Задержка видео : 24 мс. Размер потока : 519 Мбайт (3%) Язык : English Service kind : Complete Main Default : Нет Forced : Нет Текст #1 Идентификатор : 4 Формат : UTF-8 Идентификатор кодека : S_TEXT/UTF8 Идентификатор кодека/Информация : UTF-8 Plain Text Продолжительность : 1 ч. 45 м. Битрейт : 46 бит/сек Частота кадров : 0,235 кадр/сек Count of elements : 1493 Размер потока : 35,8 Кбайт (0%) Язык : English Default : Нет Forced : Нет Текст #2 Идентификатор : 5 Формат : UTF-8 Идентификатор кодека : S_TEXT/UTF8 Идентификатор кодека/Информация : UTF-8 Plain Text Продолжительность : 1 ч. 53 м. Битрейт : 62 бит/сек Частота кадров : 0,266 кадр/сек Count of elements : 1809 Размер потока : 52,1 Кбайт (0%) Заголовок : SDH Язык : English Default : Нет Forced : Нет
[+] Скриншоты

Всего файлов в раздаче: 1 
Land of Bad.2024.HDR.WEB-DL.2160p.W.mkv19.95 GB

Похожие раздачи по запросу - Территория
2024-04-19 magnet Артуро Перес-Реверте - Территория команчей (2024) MP3 250.57 MB ↑ 0 ↓ 0
2024-04-06 magnet Территория зла / Land of Bad (2024) WEB-DL 1080p от селезень | D, P2 8.62 GB ↑ 0 ↓ 1
2024-04-06 magnet Территория зла / Land of Bad (2024) WEB-DLRip от MegaPeer | D 1.46 GB ↑ 0 ↓ 0
2024-04-06 magnet Территория зла / Land of Bad (2024) UHD WEB-DL-HEVC 2160p от селезень | 4K | HDR | HDR10+ | Dolby Vision Profile 8 | D, P2 20.69 GB ↑ 0 ↓ 0
2024-04-06 magnet Территория зла / Land of Bad (2024) UHD WEB-DL-HEVC 2160p | 4K | SDR | D, P2 13.59 GB ↑ 1 ↓ 0
2024-04-06 magnet Территория зла / Land of Bad (2024) WEB-DLRip от toxics & селезень | D 1.46 GB ↑ 0 ↓ 0
2024-04-05 magnet Территория зла / Land of Bad (2024) WEB-DLRip-AVC от DoMiNo & селезень | D, P2 2.17 GB ↑ 0 ↓ 0

Комментарии


Зарегистрируйтесь чтобы добавить комментарий
Торрент клиент
byTorrent - программа для загрузки торрент-файлов.

Скачать byTorrent.exe (1,5 МБ)

Скачать byTorrent.zip (0,6 МБ)

Поддержи torrent.by
российских рублей
(300 российских рублей это 4$)

Обратная связь rss

End game ©