↑↓torrent.by
Поиск
Логин:  Регистрация
Пароль:

Дом у дороги / Road House (2024) WEB-DL 2160p | 4K | HDR10+ | P, P2, A

download Скачать торрент-файл   magnet Магнитная ссылка Размер: 18.59 GB Раздают: 1 Качают: 2 Добавлен: 2024-03-24 05:00
Пиры будут получены из сети DHT
Последний сидер был замечен сегодня в 17:36
Название: Дом у дороги Оригинальное название: Road House Год выхода: 2024 Производство: США/ Metro-Goldwyn-Mayer, Silver Pictures, Amazon Prime Video Жанр: Боевик, триллер, криминал Перевод: Профессиональный многоголосый, профессиональный двухголосый, авторский одноголосый Продолжительность: 02:03:24 Режиссёр: Даг Лайман В ролях: Джейк Джилленхол, Конор Макгрегор, Даниэла Мелшиор, Джессика Уильямс, Лукас Гейдж, Билли Магнуссен, Даррен Барнет, Жоакин де Алмейда, Доминик Коламбус Описание: Бывший боец UFC Элвуд Далтон переживает не лучшие времена. Он живёт в машине, зарабатывает участием в подпольных боях без правил и устраивается на работу вышибалой в придорожный ресторан Флорида-Кис, но обнаруживает, что этот рай - не то, чем кажется. Формат: MKV Качество: WEB-DL 2160p Видео: MPEG-H/HEVC, 3840x1600, 19.5 Mb/s, 0.132 бит/(Пиксели*Кадры), 23.976 fps, HDR10+ Аудио 1: AC-3, 6 ch, 48.0 kHz, 384 Kbps - Русский MVO (Jaskier) Аудио 2: AC-3, 6 ch, 48.0 kHz, 640 Kbps - Русский DVO (ViruseProject - 18+) Аудио 3: AC-3, 6 ch, 48.0 kHz, 448 Kbps - Русский VO (Михаил Яроцкий - 18+) Аудио 4: E-AC3, 6 ch, 48.0 kHz, 640 Kbps - Английский Субтитры: Русские, английские
[+] MediainfoОбщее Уникальный идентификатор : 180083762575140504184012783435515170187 (0x877ADEFF5EBEB905390F7AA7C3C40D8B) Полное имя : F:Road.House.2024.x265.WEB-DL.2160p.HDR10Plus.mkv Формат : Matroska Версия формата : Version 4 Размер файла : 18,6 Гбайт Продолжительность : 2 ч. 3 м. Общий поток : 21,6 Мбит/сек Дата кодирования : UTC 2024-03-23 13:53:08 Программа кодирования : mkvmerge v83.0 ('Circle Of Friends') 64-bit Библиотека кодирования : libebml v1.4.5 + libmatroska v1.7.1 Видео Идентификатор : 1 Формат : HEVC Формат/Информация : High Efficiency Video Coding Профиль формата : Main 10@L5@Main HDR format : SMPTE ST 2094 App 4, Version 1, HDR10+ Profile B compatible Идентификатор кодека : V_MPEGH/ISO/HEVC Продолжительность : 2 ч. 3 м. Битрейт : 19,5 Мбит/сек Ширина : 3 840 пикселей Высота : 1 600 пикселей Соотношение сторон : 2,40:1 Режим частоты кадров : Постоянный Частота кадров : 23,976 (24000/1001) кадра/сек Цветовое пространство : YUV Субдискретизация насыщенности : 4:2:0 Битовая глубина : 10 бит Бит/(Пиксели*Кадры) : 0.132 Размер потока : 16,8 Гбайт (90%) Язык : English Default : Да Forced : Да Цветовой диапазон : Limited Основные цвета : BT.2020 Характеристики трансфера : PQ Коэффициенты матрицы : BT.2020 non-constant Mastering display color primaries : Display P3 Mastering display luminance : min: 0.0001 cd/m2, max: 1000 cd/m2 Maximum Content Light Level : 785 cd/m2 Maximum Frame-Average Light Level : 285 cd/m2 Аудио #1 Идентификатор : 2 Формат : AC-3 Формат/Информация : Audio Coding 3 Коммерческое название : Dolby Digital Идентификатор кодека : A_AC3 Продолжительность : 2 ч. 3 м. Вид битрейта : Постоянный Битрейт : 384 Кбит/сек Каналы : 6 каналов Channel layout : L R C LFE Ls Rs Частота : 48,0 КГц Частота кадров : 31,250 кадров/сек (1536 SPF) Метод сжатия : С потерями Размер потока : 339 Мбайт (2%) Заголовок : MVO (Jaskier) Язык : Russian Service kind : Complete Main Default : Да Forced : Да Аудио #2 Идентификатор : 3 Формат : AC-3 Формат/Информация : Audio Coding 3 Коммерческое название : Dolby Digital Идентификатор кодека : A_AC3 Продолжительность : 2 ч. 3 м. Вид битрейта : Постоянный Битрейт : 640 Кбит/сек Каналы : 6 каналов Channel layout : L R C LFE Ls Rs Частота : 48,0 КГц Частота кадров : 31,250 кадров/сек (1536 SPF) Метод сжатия : С потерями Размер потока : 565 Мбайт (3%) Заголовок : DVO (Jaskier) Язык : Russian Service kind : Complete Main Default : Нет Forced : Нет Аудио #3 Идентификатор : 4 Формат : AC-3 Формат/Информация : Audio Coding 3 Коммерческое название : Dolby Digital Идентификатор кодека : A_AC3 Продолжительность : 2 ч. 3 м. Вид битрейта : Постоянный Битрейт : 384 Кбит/сек Каналы : 6 каналов Channel layout : L R C LFE Ls Rs Частота : 48,0 КГц Частота кадров : 31,250 кадров/сек (1536 SPF) Метод сжатия : С потерями Размер потока : 339 Мбайт (2%) Заголовок : AVO (М.Яроцкий 18+) Язык : Russian Service kind : Complete Main Default : Нет Forced : Нет Аудио #4 Идентификатор : 5 Формат : E-AC-3 Формат/Информация : Enhanced AC-3 Коммерческое название : Dolby Digital Plus Идентификатор кодека : A_EAC3 Продолжительность : 2 ч. 3 м. Вид битрейта : Постоянный Битрейт : 640 Кбит/сек Каналы : 6 каналов Channel layout : L R C LFE Ls Rs Частота : 48,0 КГц Частота кадров : 31,250 кадров/сек (1536 SPF) Метод сжатия : С потерями Размер потока : 565 Мбайт (3%) Язык : English Service kind : Complete Main Default : Нет Forced : Нет Текст #1 Идентификатор : 6 Формат : UTF-8 Идентификатор кодека : S_TEXT/UTF8 Идентификатор кодека/Информация : UTF-8 Plain Text Продолжительность : 1 ч. 54 м. Битрейт : 78 бит/сек Частота кадров : 0,216 кадр/сек Count of elements : 1485 Размер потока : 66,0 Кбайт (0%) Заголовок : Full (stirlooo) Язык : Russian Default : Нет Forced : Нет Текст #2 Идентификатор : 7 Формат : UTF-8 Идентификатор кодека : S_TEXT/UTF8 Идентификатор кодека/Информация : UTF-8 Plain Text Продолжительность : 1 ч. 54 м. Битрейт : 63 бит/сек Частота кадров : 0,267 кадр/сек Count of elements : 1832 Размер потока : 53,3 Кбайт (0%) Заголовок : SDH Язык : English Default : Нет Forced : Нет Меню 00:00:00.000 : :Studio Logo 00:00:26.000 : :Scene 1 00:01:10.000 : :Scene 2 00:01:30.000 : :Title Sequence 00:01:36.000 : :Scene 3 00:02:51.000 : :Scene 4 00:03:53.000 : :Scene 5 00:04:31.000 : :Scene 6 00:07:16.000 : :Scene 7 00:07:36.000 : :Scene 8 00:08:59.000 : :Scene 9 00:12:02.000 : :Scene 10 00:13:16.000 : :Scene 11 00:13:53.000 : :Scene 12 00:14:39.000 : :Scene 13 00:15:11.000 : :Scene 14 00:15:38.000 : :Scene 15 00:16:50.000 : :Scene 16 00:17:33.000 : :Scene 17 00:19:51.000 : :Scene 18 00:20:29.000 : :Scene 19 00:22:52.000 : :Scene 20 00:23:19.000 : :Scene 21 00:23:27.000 : :Scene 22 00:25:14.000 : :Scene 23 00:26:01.000 : :Scene 24 00:26:30.000 : :Scene 25 00:27:58.000 : :Scene 26 00:30:14.000 : :Scene 27 00:31:01.000 : :Scene 28 00:32:02.000 : :Scene 29 00:34:52.000 : :Scene 30 00:35:11.000 : :Scene 31 00:37:20.000 : :Scene 32 00:37:36.000 : :Scene 33 00:38:03.000 : :Scene 34 00:39:30.000 : :Scene 35 00:39:48.000 : :Scene 36 00:40:40.000 : :Scene 37 00:41:06.000 : :Scene 38 00:41:29.000 : :Scene 39 00:43:42.000 : :Scene 40 00:45:11.000 : :Scene 41 00:45:19.000 : :Scene 42 00:46:23.000 : :Scene 43 00:46:33.000 : :Scene 44 00:47:45.000 : :Scene 45 00:48:03.000 : :Scene 46 00:48:57.000 : :Scene 47 00:49:51.000 : :Scene 48 00:51:36.000 : :Scene 49 00:52:58.000 : :Scene 50 00:54:11.000 : :Scene 51 00:55:25.000 : :Scene 52 00:59:12.000 : :Scene 53 00:59:25.000 : :Scene 54 01:00:05.000 : :Scene 55 01:00:42.000 : :Scene 56 01:02:37.000 : :Scene 57 01:03:19.000 : :Scene 58 01:06:22.000 : :Scene 59 01:07:20.000 : :Scene 60 01:07:35.000 : :Scene 61 01:07:57.000 : :Scene 62 01:09:11.000 : :Scene 63 01:12:39.000 : :Scene 64 01:13:02.000 : :Scene 65 01:13:58.000 : :Scene 66 01:15:05.000 : :Scene 67 01:16:13.000 : :Scene 68 01:19:11.000 : :Scene 69 01:19:18.000 : :Scene 70 01:19:56.000 : :Scene 71 01:21:30.000 : :Scene 72 01:22:09.000 : :Scene 73 01:22:25.000 : :Scene 74 01:23:27.000 : :Scene 75 01:24:54.000 : :Scene 76 01:25:59.000 : :Scene 77 01:26:44.000 : :Scene 78 01:29:31.000 : :Scene 79 01:29:47.000 : :Scene 80 01:31:14.000 : :Scene 81 01:32:12.000 : :Scene 82 01:32:49.000 : :Scene 83 01:36:30.000 : :Scene 84 01:38:14.000 : :Scene 85 01:38:33.000 : :Scene 86 01:39:27.000 : :Scene 87 01:40:04.000 : :Scene 88 01:40:50.000 : :Scene 89 01:41:14.000 : :Scene 90 01:41:36.000 : :Scene 91 01:41:53.000 : :Scene 92 01:43:00.000 : :Scene 93 01:46:45.000 : :Scene 94 01:47:04.000 : :Scene 95 01:48:03.000 : :Scene 96 01:48:40.000 : :Scene 97 01:49:29.000 : :Scene 98 01:50:18.000 : :Scene 99 01:51:35.000 : :Scene 100 01:52:01.000 : :Scene 101 01:52:07.000 : :End Credits 01:54:10.000 : :BONUS SCENE 01:54:20.000 : :End Credits
[+] Скриншоты

Всего файлов в раздаче: 1 
Road.House.2024.x265.WEB-DL.2160p.HDR10Plus.mkv18.59 GB

Похожие раздачи по запросу - Дом
2024-04-08 magnet Дом у дороги / Road House (2024) WEB-DLRip-AVC от DoMiNo & селезень | D, P 3.26 GB ↑ 1 ↓ 5
2024-04-08 magnet Дом у дороги / Road House (2024) WEB-DLRip-AVC от New-Team | D | HDRezka Studio 1.75 GB ↑ 0 ↓ 3
2024-04-07 magnet Похитители бриллиантов / Дом 11 по улице Хэрроухаус / 11 Harrowhouse (1974) WEB-DLRip-AVC от ExKinoRay | P, P2, A 1.75 GB ↑ 0 ↓ 0
2024-04-07 magnet Дом у дороги / Road House (2024) WEB-DLRip-HEVC 1080p от AllHevc | HDRezka Studio | D 3.05 GB ↑ 1 ↓ 5
2024-04-05 magnet Дом у дороги / Road House (2024) WEB-DL-HEVC 2160p | 4K | SDR | D, P, P2, A 16.82 GB ↑ 0 ↓ 3
2024-04-04 magnet Дом у дороги / Road House (2024) WEB-DLRip от MegaPeer | D | HDRezka Studio 1.48 GB ↑ 0 ↓ 0
2024-04-04 magnet Дом у дороги / Road House (2024) WEB-DLRip от toxics & селезень | D | HDRezka Studio 1.47 GB ↑ 0 ↓ 1

Комментарии


Зарегистрируйтесь чтобы добавить комментарий
Торрент клиент
byTorrent - программа для загрузки торрент-файлов.

Скачать byTorrent.exe (1,5 МБ)

Скачать byTorrent.zip (0,6 МБ)

Поддержи torrent.by
российских рублей
(300 российских рублей это 4$)

Обратная связь rss

End game ©