↑↓torrent.by
Поиск
Логин:  Регистрация
Пароль:

Дом у дороги / Road House (2024) WEB-DLRip 720p от DoMiNo & селезень | P, P2, A

download Скачать торрент-файл   magnet Магнитная ссылка Размер: 5.00 GB Раздают: 1 Качают: 0 Добавлен: 2024-03-24 05:00
Пиры будут получены из сети DHT
Последний сидер был замечен сегодня в 23:20
Информация о фильме Название: Дом у дороги Оригинальное название: Road House Год выпуска: 2024 Жанр: Боевик, триллер, криминал Выпущено: США, Metro-Goldwyn-Mayer (MGM), Silver Pictures, Studio Concierge, BCD Travel Режиссер: Даг Лайман В ролях: Джейк Джилленхол, Конор Макгрегор, Даниэла Мелшиор, Гбемисола Икумело, Джессика Уильямс, Лукас Гейдж, Билли Магнуссен, Даррен Барнет, Post Malone, Жоакин де Алмейда, Доминик Коламбус, Артуро Кастро, Дж.Д. Пардо, Бо Напп О фильме: Ремейк одноимённого фильма 1989 года. Бывший боец UFC Элвуд Далтон переживает не лучшие времена. Он живёт в машине и зарабатывает участием в подпольных боях без правил. Владелица бара «Дом у дороги», который расположен во Флорида-Кис, предлагает Далтону работу вышибалы, поскольку в заведении стабильно устраивают погромы члены местной банды. Страна: США Продолжительность: 02:03:24 Перевод 1: Профессиональный (многоголосый, закадровый) | Jaskier 18+ Перевод 2: Профессиональный (двухголосый, закадровый) | ViruseProject 18+ Перевод 3: Авторский | Михаил Яроцкий 18+ Субтитры: Русские (Full), Английские (Full, SDH) Файл Формат: Matroska Качество: WEB-DLRip 720p Видео: 1280x532 at 23.976 fps, x264@L4.1, ~3937 kbps Аудио 1: AC3, 6 ch, ~384 kbps - | Русский | | Jaskier Аудио 2: AC3, 6 ch, ~640 kbps - | Русский | | ViruseProject Аудио 3: AC3, 6 ch, ~384 kbps - | Русский | | Михаил Яроцкий Аудио 4: AC3, 6 ch, ~448 kbps - | Английский | | Original Формат субтитров: softsub (SRT) ***Рип от: -=DoMiNo=-
[+] M/Ix264 : frame I:1178 Avg QP:16.85 size: 77574 x264 : frame P:42265 Avg QP:18.42 size: 39755 x264 : frame B:134089 Avg QP:20.92 size: 13962 General Unique ID : 318009783766355863013843153491160089119 (0xEF3E74DE41CE1E7C0B02ED433C2E421F) Complete name : S:Road.House.2024.P.P2.A.WEB-DLRip.720p.x264.seleZen.mkv Format : Matroska Format version : Version 4 File size : 5.00 GiB Duration : 2 h 3 min Overall bit rate : 5 795 kb/s Frame rate : 23.976 FPS Movie name : Road.House.2024.P.P2.A.WEB-DLRip.720p.x264.seleZen Encoded date : 2024-03-23 14:11:38 UTC Writing application : mkvmerge v83.0 ('Circle Of Friends') 64-bit Writing library : libebml v1.4.5 + libmatroska v1.7.1 Cover : Yes Attachments : cover.jpg / small_cover.jpg Video ID : 1 Format : AVC Format/Info : Advanced Video Codec Format profile : High@L4.1 Format settings : CABAC / 5 Ref Frames Format settings, CABAC : Yes Format settings, Reference : 5 frames Codec ID : V_MPEG4/ISO/AVC Duration : 2 h 3 min Bit rate : 3 937 kb/s Width : 1 280 pixels Height : 532 pixels Display aspect ratio : 2.40:1 Frame rate mode : Constant Frame rate : 23.976 (24000/1001) FPS Color space : YUV Chroma subsampling : 4:2:0 Bit depth : 8 bits Scan type : Progressive Bits/(Pixel*Frame) : 0.241 Stream size : 3.39 GiB (68%) Title : -=DoMiNo=- Writing library : x264 core 164 r3190 7ed753b Encoding settings : cabac=1 / ref=5 / deblock=1:-2:-1 / analyse=0x3:0x133 / me=umh / subme=10 / psy=1 / psy_rd=1.05:0.03 / mixed_ref=1 / me_range=32 / chroma_me=1 / trellis=2 / 8x8dct=1 / cqm=0 / deadzone=21,11 / fast_pskip=0 / chroma_qp_offset=-3 / threads=17 / lookahead_threads=4 / sliced_threads=0 / nr=0 / decimate=0 / interlaced=0 / bluray_compat=0 / constrained_intra=0 / bframes=12 / b_pyramid=2 / b_adapt=2 / b_bias=0 / direct=3 / weightb=1 / open_gop=0 / weightp=2 / keyint=240 / keyint_min=23 / scenecut=40 / intra_refresh=0 / rc_lookahead=60 / rc=crf / mbtree=0 / crf=18.8 / qcomp=0.60 / qpmin=0 / qpmax=69 / qpstep=4 / vbv_maxrate=50000 / vbv_bufsize=62500 / crf_max=0.0 / nal_hrd=none / filler=0 / ip_ratio=1.32 / pb_ratio=1.30 / aq=3:0.90 Language : English Default : Yes Forced : No Color range : Limited Color primaries : BT.709 Transfer characteristics : BT.709 Matrix coefficients : BT.709 Audio #1 ID : 2 Format : AC-3 Format/Info : Audio Coding 3 Commercial name : Dolby Digital Codec ID : A_AC3 Duration : 2 h 3 min Bit rate mode : Constant Bit rate : 384 kb/s Channel(s) : 6 channels Channel layout : L R C LFE Ls Rs Sampling rate : 48.0 kHz Frame rate : 31.250 FPS (1536 SPF) Compression mode : Lossy Stream size : 339 MiB (7%) Title : MVO -Jaskier - 18+ Language : Russian Service kind : Complete Main Default : Yes Forced : No Audio #2 ID : 3 Format : AC-3 Format/Info : Audio Coding 3 Commercial name : Dolby Digital Codec ID : A_AC3 Duration : 2 h 3 min Bit rate mode : Constant Bit rate : 640 kb/s Channel(s) : 6 channels Channel layout : L R C LFE Ls Rs Sampling rate : 48.0 kHz Frame rate : 31.250 FPS (1536 SPF) Compression mode : Lossy Stream size : 565 MiB (11%) Title : DVO - ViruseProject - 18+ Language : Russian Service kind : Complete Main Default : No Forced : No Audio #3 ID : 4 Format : AC-3 Format/Info : Audio Coding 3 Commercial name : Dolby Digital Codec ID : A_AC3 Duration : 2 h 3 min Bit rate mode : Constant Bit rate : 384 kb/s Channel(s) : 6 channels Channel layout : L R C LFE Ls Rs Sampling rate : 48.0 kHz Frame rate : 31.250 FPS (1536 SPF) Compression mode : Lossy Stream size : 339 MiB (7%) Title : AVO - Михаил Яроцкий - 18+ Language : Russian Service kind : Complete Main Default : No Forced : No Audio #4 ID : 5 Format : AC-3 Format/Info : Audio Coding 3 Commercial name : Dolby Digital Codec ID : A_AC3 Duration : 2 h 3 min Bit rate mode : Constant Bit rate : 448 kb/s Channel(s) : 6 channels Channel layout : L R C LFE Ls Rs Sampling rate : 48.0 kHz Frame rate : 31.250 FPS (1536 SPF) Compression mode : Lossy Stream size : 395 MiB (8%) Language : English Service kind : Complete Main Default : No Forced : No Text #1 ID : 6 Format : UTF-8 Codec ID : S_TEXT/UTF8 Codec ID/Info : UTF-8 Plain Text Duration : 1 h 54 min Bit rate : 78 b/s Frame rate : 0.216 FPS Count of elements : 1485 Stream size : 66.0 KiB (0%) Title : stirlooo Language : Russian Default : No Forced : No Text #2 ID : 7 Format : UTF-8 Codec ID : S_TEXT/UTF8 Codec ID/Info : UTF-8 Plain Text Duration : 1 h 53 min Bit rate : 58 b/s Frame rate : 0.245 FPS Count of elements : 1673 Stream size : 49.2 KiB (0%) Language : English (US) Default : No Forced : No Text #3 ID : 8 Format : UTF-8 Codec ID : S_TEXT/UTF8 Codec ID/Info : UTF-8 Plain Text Duration : 1 h 54 min Bit rate : 63 b/s Frame rate : 0.267 FPS Count of elements : 1832 Stream size : 53.3 KiB (0%) Title : SDH Language : English (US) Default : No Forced : No Menu 00:00:00.000 : en:Studio Logo 00:00:26.000 : en:Scene 1 00:01:10.000 : en:Scene 2 00:01:30.000 : en:Title Sequence 00:01:36.000 : en:Scene 3 00:02:51.000 : en:Scene 4 00:03:53.000 : en:Scene 5 00:04:31.000 : en:Scene 6 00:07:16.000 : en:Scene 7 00:07:36.000 : en:Scene 8 00:08:59.000 : en:Scene 9 00:12:02.000 : en:Scene 10 00:13:16.000 : en:Scene 11 00:13:53.000 : en:Scene 12 00:14:39.000 : en:Scene 13 00:15:11.000 : en:Scene 14 00:15:38.000 : en:Scene 15 00:16:50.000 : en:Scene 16 00:17:33.000 : en:Scene 17 00:19:51.000 : en:Scene 18 00:20:29.000 : en:Scene 19 00:22:52.000 : en:Scene 20 00:23:19.000 : en:Scene 21 00:23:27.000 : en:Scene 22 00:25:14.000 : en:Scene 23 00:26:01.000 : en:Scene 24 00:26:30.000 : en:Scene 25 00:27:58.000 : en:Scene 26 00:30:14.000 : en:Scene 27 00:31:01.000 : en:Scene 28 00:32:02.000 : en:Scene 29 00:34:52.000 : en:Scene 30 00:35:11.000 : en:Scene 31 00:37:20.000 : en:Scene 32 00:37:36.000 : en:Scene 33 00:38:03.000 : en:Scene 34 00:39:30.000 : en:Scene 35 00:39:48.000 : en:Scene 36 00:40:40.000 : en:Scene 37 00:41:06.000 : en:Scene 38 00:41:29.000 : en:Scene 39 00:43:42.000 : en:Scene 40 00:45:11.000 : en:Scene 41 00:45:19.000 : en:Scene 42 00:46:23.000 : en:Scene 43 00:46:33.000 : en:Scene 44 00:47:45.000 : en:Scene 45 00:48:03.000 : en:Scene 46 00:48:57.000 : en:Scene 47 00:49:51.000 : en:Scene 48 00:51:36.000 : en:Scene 49 00:52:58.000 : en:Scene 50 00:54:11.000 : en:Scene 51 00:55:25.000 : en:Scene 52 00:59:12.000 : en:Scene 53 00:59:25.000 : en:Scene 54 01:00:05.000 : en:Scene 55 01:00:42.000 : en:Scene 56 01:02:37.000 : en:Scene 57 01:03:19.000 : en:Scene 58 01:06:22.000 : en:Scene 59 01:07:20.000 : en:Scene 60 01:07:35.000 : en:Scene 61 01:07:57.000 : en:Scene 62 01:09:11.000 : en:Scene 63 01:12:39.000 : en:Scene 64 01:13:02.000 : en:Scene 65 01:13:58.000 : en:Scene 66 01:15:05.000 : en:Scene 67 01:16:13.000 : en:Scene 68 01:19:11.000 : en:Scene 69 01:19:18.000 : en:Scene 70 01:19:56.000 : en:Scene 71 01:21:30.000 : en:Scene 72 01:22:09.000 : en:Scene 73 01:22:25.000 : en:Scene 74 01:23:27.000 : en:Scene 75 01:24:54.000 : en:Scene 76 01:25:59.000 : en:Scene 77 01:26:44.000 : en:Scene 78 01:29:31.000 : en:Scene 79 01:29:47.000 : en:Scene 80 01:31:14.000 : en:Scene 81 01:32:12.000 : en:Scene 82 01:32:49.000 : en:Scene 83 01:36:30.000 : en:Scene 84 01:38:14.000 : en:Scene 85 01:38:33.000 : en:Scene 86 01:39:27.000 : en:Scene 87 01:40:04.000 : en:Scene 88 01:40:50.000 : en:Scene 89 01:41:14.000 : en:Scene 90 01:41:36.000 : en:Scene 91 01:41:53.000 : en:Scene 92 01:43:00.000 : en:Scene 93 01:46:45.000 : en:Scene 94 01:47:04.000 : en:Scene 95 01:48:03.000 : en:Scene 96 01:48:40.000 : en:Scene 97 01:49:29.000 : en:Scene 98 01:50:18.000 : en:Scene 99 01:51:35.000 : en:Scene 100 01:52:01.000 : en:Scene 101 01:52:07.000 : en:End Credits 01:54:10.000 : en:BONUS SCENE 01:54:20.000 : en:End Credits
Релиз: Присоединяйся к: Кликай на баннеры.

Всего файлов в раздаче: 1 
Road.House.2024.P.P2.A.WEB-DLRip.720p.x264.seleZen.mkv5.00 GB

Похожие раздачи по запросу - Дом
2024-04-17 magnet Дом удовольствия / 11 дней, 11 ночей 7 - Дом удовольствия / La casa del piacere (1994) DVDRip | L1 745.44 MB ↑ 0 ↓ 0
2024-04-13 magnet Дом у дороги / Road House (2024) WEB-DL 1080p | D, P, P2, A 12.60 GB ↑ 2 ↓ 23
2024-04-08 magnet Дом у дороги / Road House (2024) WEB-DLRip-AVC от DoMiNo & селезень | D, P 3.26 GB ↑ 0 ↓ 6
2024-04-08 magnet Дом у дороги / Road House (2024) WEB-DLRip-AVC от New-Team | D | HDRezka Studio 1.75 GB ↑ 0 ↓ 3
2024-04-07 magnet Похитители бриллиантов / Дом 11 по улице Хэрроухаус / 11 Harrowhouse (1974) WEB-DLRip-AVC от ExKinoRay | P, P2, A 1.75 GB ↑ 0 ↓ 0
2024-04-07 magnet Дом у дороги / Road House (2024) WEB-DLRip-HEVC 1080p от AllHevc | HDRezka Studio | D 3.05 GB ↑ 1 ↓ 2
2024-04-05 magnet Дом у дороги / Road House (2024) WEB-DL-HEVC 2160p | 4K | SDR | D, P, P2, A 16.82 GB ↑ 1 ↓ 5

Комментарии


Зарегистрируйтесь чтобы добавить комментарий
Торрент клиент
byTorrent - программа для загрузки торрент-файлов.

Скачать byTorrent.exe (1,5 МБ)

Скачать byTorrent.zip (0,6 МБ)

Поддержи torrent.by
российских рублей
(300 российских рублей это 4$)

Обратная связь rss

End game ©