↑↓torrent.by
Поиск
Логин:  Регистрация
Пароль:

Дом у дороги / Road House (2024) WEB-DL 1080p от Jaskier | P

download Скачать торрент-файл   magnet Магнитная ссылка Размер: 8.45 GB Раздают: 0 Качают: 6 Добавлен: 2024-03-24 05:00
Пиры будут получены из сети DHT
Последний сидер был замечен сегодня в 11:20
Информация о фильме Название: Дом у дороги Оригинальное название: Road House Год выхода: 2024 Жанр: боевик, драма, криминал Режиссер: Даг Лайман В ролях: Джейк Джилленхол, Даниэла Мелшиор, Билли Магнуссен, Конор Макгрегор, Джессика Уильямс, Жоакин де Алмейда, Б.К. Кэннон, Лукас Гейдж, Дж.Д. Пардо, Ханна Лав Ланье О фильме: Бывший боец UFC Элвуд Далтон переживает не лучшие времена. Он живёт в машине и зарабатывает участием в подпольных боях без правил. Владелица бара «Дом у дороги», который расположен во Флорида-Кис, предлагает Далтону работу вышибалы, поскольку в заведении стабильно устраивают погромы члены местной банды. Страна: США Студия: BCD Travel, Metro-Goldwyn-Mayer (MGM), Silver Pictures Продолжительность: 02:03:24 Перевод: Перевод: Профессиональный (многоголосый закадровый) Jaskier Файл Кодек: MKV Качество: WEB-DL 1080p Видео: AVC, 1920x800 (2.40:1), 23.976 fps, ~8586 kbps Звук: Аудио 1: Русский, AC-3, 48 kHz, 6 ch, 384 kbps | Jaskier Аудио 2: Английский, Е-AC-3, 48 kHz, 6 ch, 640 kbps Субтитры: Русские, английские Семпл
[+] MediaInfo General Unique ID : 177118601232397344291754802660925245014 (0x853FCD41983DE0B0957E4870FAA40656) Complete name : E:TorrentRoad.House.2024.1080p.AMZN.WEB-DL.ENG.DDP.5.1.H264-JaskierRoad.House.2024.1080p.AMZN.WEB-DL.ENG.DDP.5.1.H264-Jaskier.mkv Format : Matroska Format version : Version 4 File size : 8.45 GiB Duration : 2 h 3 min Overall bit rate : 9 805 kb/s Frame rate : 23.976 FPS Movie name : Road.House.2024.1080p.AMZN.WEB-DL Encoded date : 2024-03-23 11:26:36 UTC Writing application : mkvmerge v6.6.0 ('The Edge Of The In Between') built on Dec 1 2013 17:55:00 Writing library : libebml v1.3.0 + libmatroska v1.4.1 Video ID : 1 Format : AVC Format/Info : Advanced Video Codec Format profile : High@L4 Format settings : CABAC / 4 Ref Frames Format settings, CABAC : Yes Format settings, Reference frames : 4 frames Codec ID : V_MPEG4/ISO/AVC Duration : 2 h 3 min Bit rate mode : Constant Bit rate : 8 586 kb/s Nominal bit rate : 10 000 kb/s Width : 1 920 pixels Height : 800 pixels Display aspect ratio : 2.40:1 Frame rate mode : Constant Frame rate : 23.976 (24000/1001) FPS Color space : YUV Chroma subsampling : 4:2:0 Bit depth : 8 bits Scan type : Progressive Bits/(Pixel*Frame) : 0.233 Stream size : 7.40 GiB (88%) Title : BEN.THE.MEN Language : English Default : Yes Forced : Yes Color range : Limited Color primaries : BT.709 Transfer characteristics : BT.709 Matrix coefficients : BT.709 Audio #1 ID : 2 Format : AC-3 Format/Info : Audio Coding 3 Commercial name : Dolby Digital Codec ID : A_AC3 Duration : 2 h 3 min Bit rate mode : Constant Bit rate : 384 kb/s Channel(s) : 6 channels Channel layout : L R C LFE Ls Rs Sampling rate : 48.0 kHz Frame rate : 31.250 FPS (1536 SPF) Compression mode : Lossy Stream size : 339 MiB (4%) Title : Jaskier Language : Russian Service kind : Complete Main Default : Yes Forced : No Audio #2 ID : 3 Format : E-AC-3 Format/Info : Enhanced AC-3 Commercial name : Dolby Digital Plus Codec ID : A_EAC3 Duration : 2 h 3 min Bit rate mode : Constant Bit rate : 640 kb/s Channel(s) : 6 channels Channel layout : L R C LFE Ls Rs Sampling rate : 48.0 kHz Frame rate : 31.250 FPS (1536 SPF) Compression mode : Lossy Stream size : 565 MiB (7%) Title : Original Language : English Service kind : Complete Main Default : No Forced : No Text #1 ID : 4 Format : UTF-8 Codec ID : S_TEXT/UTF8 Codec ID/Info : UTF-8 Plain Text Language : Russian Default : No Forced : No Text #2 ID : 5 Format : UTF-8 Codec ID : S_TEXT/UTF8 Codec ID/Info : UTF-8 Plain Text Language : English Default : No Forced : No
[+] Скриншоты
Релиз от: Jaskier

Всего файлов в раздаче: 1 
Road.House.2024.1080p.AMZN.WEB-DL.ENG.DDP.5.1.H264-Jaskier.mkv8.45 GB

Похожие раздачи по запросу - Дом
2024-04-17 magnet Дом удовольствия / 11 дней, 11 ночей 7 - Дом удовольствия / La casa del piacere (1994) DVDRip | L1 745.44 MB ↑ 1 ↓ 0
2024-04-13 magnet Дом у дороги / Road House (2024) WEB-DL 1080p | D, P, P2, A 12.60 GB ↑ 2 ↓ 27
2024-04-08 magnet Дом у дороги / Road House (2024) WEB-DLRip-AVC от DoMiNo & селезень | D, P 3.26 GB ↑ 0 ↓ 7
2024-04-08 magnet Дом у дороги / Road House (2024) WEB-DLRip-AVC от New-Team | D | HDRezka Studio 1.75 GB ↑ 0 ↓ 4
2024-04-07 magnet Похитители бриллиантов / Дом 11 по улице Хэрроухаус / 11 Harrowhouse (1974) WEB-DLRip-AVC от ExKinoRay | P, P2, A 1.75 GB ↑ 0 ↓ 0
2024-04-07 magnet Дом у дороги / Road House (2024) WEB-DLRip-HEVC 1080p от AllHevc | HDRezka Studio | D 3.05 GB ↑ 1 ↓ 3
2024-04-05 magnet Дом у дороги / Road House (2024) WEB-DL-HEVC 2160p | 4K | SDR | D, P, P2, A 16.82 GB ↑ 1 ↓ 4

Комментарии


Зарегистрируйтесь чтобы добавить комментарий
Торрент клиент
byTorrent - программа для загрузки торрент-файлов.

Скачать byTorrent.exe (1,5 МБ)

Скачать byTorrent.zip (0,6 МБ)

Поддержи torrent.by
российских рублей
(300 российских рублей это 4$)

Обратная связь rss

End game ©