↑↓torrent.by
Поиск
Логин:  Регистрация
Пароль:

Карнифекс: Борьба за выживание / Вымерший вид / Carnifex (2022) WEB-DLRip 720p от DoMiNo & селезень | D

download Скачать торрент-файл   magnet Магнитная ссылка Размер: 1.53 GB Добавлен: 2024-03-24 11:00
Пиры будут получены из сети DHT
Последний сидер был замечен 2024-04-07 14:38
Информация о фильме Название: Карнифекс: Борьба за выживание / Вымерший вид Оригинальное название: Carnifex Год выхода: 2022 Жанр: Ужасы Режиссер: Шон Лахифф В ролях: Александра Парк, Сиси Стрингер, Гарри Гринвуд, Даррен Гилшенан, Брендан Рок О фильме: Надеясь запечатлеть редкие виды животных, группа экологов вместе с девушкой-оператором отправляется в глухой лес, где нет сотовой связи и работают только спутниковые телефоны. Вскоре исследователи действительно обнаруживают считавшегося вымершим страшного и свирепого зверя. Окрыленные успехом, они совершенно забывают, что природа этих лесов зловеща и представляет опасность для человека. С этого момента начинается настоящая игра не на жизнь, а на смерть. Страна: Австралия Студия: Dancing Road Productions Продолжительность: 01:31:21 Перевод: Дублированный Субтитры: Русские (Full), английские Файл Формат: Matroska Качество: WEB-DLRip 720p Видео: 1280x534 at 23.976 fps, x264@L4.1, ~1623 kbps Аудио 1: AC3, 6 ch, ~384 kbps - | Русский | Аудио 2: AC3, 6 ch, ~384 kbps - | Английский | Формат субтитров: softsub (SRT) ***Рип от: -=DoMiNo=-
[+] M/Ix264 : frame I:877 Avg QP:17.31 size: 58854 x264 : frame P:27944 Avg QP:18.43 size: 19643 x264 : frame B:102594 Avg QP:20.24 size: 4984 x264 : consecutive B-frames: 1.5% 1.5% 6.3% 36.5% 10.7% 21.8% 7.1% 9.3% 2.8% 0.5% 0.5% 0.3% 0.3% 0.5% 0.1% General Unique ID : 152201024061245055961782539486238309061 (0x7280D9D9DD42CA11030439ACD3B77AC5) Complete name : I:Carnifex.2022.DUB.WEB-DLRip.720p.x264.seleZen.mkv Format : Matroska Format version : Version 4 File size : 1.53 GiB Duration : 1 h 31 min Overall bit rate : 2 393 kb/s Frame rate : 23.976 FPS Movie name : Carnifex.2022.DUB.WEB-DLRip.720p.x264.seleZen Encoded date : 2023-09-19 07:14:30 UTC Writing application : mkvmerge v79.0 ('Funeral Pyres') 64-bit Writing library : libebml v1.4.4 + libmatroska v1.7.1 Cover : Yes Attachments : cover.jpg / small_cover.jpg Video ID : 1 Format : AVC Format/Info : Advanced Video Codec Format profile : High@L4.1 Format settings : CABAC / 5 Ref Frames Format settings, CABAC : Yes Format settings, Reference : 5 frames Codec ID : V_MPEG4/ISO/AVC Duration : 1 h 31 min Bit rate : 1 623 kb/s Width : 1 280 pixels Height : 534 pixels Display aspect ratio : 2.40:1 Frame rate mode : Constant Frame rate : 23.976 (24000/1001) FPS Color space : YUV Chroma subsampling : 4:2:0 Bit depth : 8 bits Scan type : Progressive Bits/(Pixel*Frame) : 0.099 Stream size : 1.04 GiB (68%) Title : -=DoMiNo=- Writing library : x264 core 164 r3107+58M ae98796 t_mod_New | by -=DoMiNo=- | X86_64] Encoding settings : cabac=1 / ref=5 / deblock=1:-1:-1 / analyse=0x3:0x133 / me=umh / subme=10 / psy=1 / fade_compensate=0.00 / psy_rd=1.00:0.15 / mixed_ref=1 / me_range=32 / chroma_me=1 / trellis=2 / 8x8dct=1 / cqm=0 / deadzone=21,11 / fast_pskip=0 / chroma_qp_offset=-3 / threads=17 / lookahead_threads=4 / sliced_threads=0 / nr=0 / decimate=1 / interlaced=0 / bluray_compat=0 / constrained_intra=0 / fgo=0 / bframes=14 / b_pyramid=2 / b_adapt=2 / b_bias=0 / direct=3 / weightb=1 / open_gop=0 / weightp=2 / keyint=240 / keyint_min=24 / scenecut=40 / intra_refresh=0 / rc_lookahead=60 / rc=crf / mbtree=0 / crf=21.5000 / qcomp=0.70 / qpmin=0:0:0 / qpmax=69:69:69 / qpstep=4 / vbv_maxrate=50000 / vbv_bufsize=62500 / crf_max=0.0 / nal_hrd=none / filler=0 / ip_ratio=1.32 / pb_ratio=1.25 / aq=3:0.90 / aq-sensitivity=10.00 / aq-factor=1.00:1.00:1.00:1.00 / aq2=0 / aq3=0 Language : English Default : Yes Forced : No Color range : Limited Color primaries : BT.709 Transfer characteristics : BT.709 Matrix coefficients : BT.709 Audio #1 ID : 2 Format : AC-3 Format/Info : Audio Coding 3 Commercial name : Dolby Digital Codec ID : A_AC3 Duration : 1 h 31 min Bit rate mode : Constant Bit rate : 384 kb/s Channel(s) : 6 channels Channel layout : L R C LFE Ls Rs Sampling rate : 48.0 kHz Frame rate : 31.250 FPS (1536 SPF) Compression mode : Lossy Stream size : 251 MiB (16%) Title : Dub Language : Russian Service kind : Complete Main Default : Yes Forced : No Audio #2 ID : 3 Format : AC-3 Format/Info : Audio Coding 3 Commercial name : Dolby Digital Codec ID : A_AC3 Duration : 1 h 31 min Bit rate mode : Constant Bit rate : 384 kb/s Channel(s) : 6 channels Channel layout : L R C LFE Ls Rs Sampling rate : 48.0 kHz Frame rate : 31.250 FPS (1536 SPF) Compression mode : Lossy Stream size : 251 MiB (16%) Title : Original Language : English Service kind : Complete Main Default : No Forced : No Text #1 ID : 4 Format : UTF-8 Codec ID : S_TEXT/UTF8 Codec ID/Info : UTF-8 Plain Text Duration : 1 h 26 min Bit rate : 44 b/s Frame rate : 0.135 FPS Count of elements : 700 Stream size : 28.2 KiB (0%) Title : Full Language : Russian Default : No Forced : No Text #2 ID : 5 Format : UTF-8 Codec ID : S_TEXT/UTF8 Codec ID/Info : UTF-8 Plain Text Duration : 1 h 19 min Bit rate : 34 b/s Frame rate : 0.151 FPS Count of elements : 715 Stream size : 19.8 KiB (0%) Title : Full Language : English (US) Default : No Forced : No Text #3 ID : 6 Format : UTF-8 Codec ID : S_TEXT/UTF8 Codec ID/Info : UTF-8 Plain Text Duration : 1 h 30 min Bit rate : 40 b/s Frame rate : 0.198 FPS Count of elements : 1075 Stream size : 27.1 KiB (0%) Title : SDH Language : English (US) Default : No Forced : No
Релиз: Присоединяйся к: Кликай на баннеры.

Всего файлов в раздаче: 1 
Carnifex.2022.DUB.WEB-DLRip.720p.x264.seleZen.mkv1.53 GB

Комментарии


Зарегистрируйтесь чтобы добавить комментарий
Торрент клиент
byTorrent - программа для загрузки торрент-файлов.

Скачать byTorrent.exe (1,5 МБ)

Скачать byTorrent.zip (0,6 МБ)

Поддержи torrent.by
российских рублей
(300 российских рублей это 4$)

Обратная связь rss

End game ©