↑↓torrent.by
Поиск
Логин:  Регистрация
Пароль:

Три дня вне закона (1992) WEB-DLRip от New-Team

download Скачать торрент-файл   magnet Магнитная ссылка Размер: 1.09 GB Добавлен: 2024-03-24 11:00
Пиры будут получены из сети DHT
Последний сидер был замечен 2024-04-13 17:36
Страна: Россия Производство: Театр-студия А.К.Т., к/ст им. М. Горького Жанр: драма, детектив Год выпуска: 1992 Продолжительность: 01:33:49 Перевод: не требуется Оригинальная аудиодорожка: русский Cубтитры: нет Режиссер: Тимофей Спивак В ролях: Дмитрий Щербина, Евгения Крюкова, Владимир Андреев, Игорь Янковский, Юрий Назаров, Василий Бочкарёв, Марина Левтова, Владимир Носик, Тимофей Носик, Станислав Стрелков, Анатолий Егоров, Лада Негруль, Айк Погосян, Николай Савосин, Алексей Ванин, Ренат Лайшев, Вячеслав Баранов, Людмила Полякова, Ирина Губанова, Владимир Смирнов... Подробнее об актерах Описание: Водитель грузовика, морской пехотинец, приезжает в Москву из провинции. За драку на бензоколонке Андрея арестовывают и везут в тюрьму вместе с опытными рецидивистами. По дороге те устраивают побег из спецмашины и заставляют Андрея бежать вместе с ними. Андрей находит прибежище в доме друга и вместе с его сестрой Машей вскоре становится свидетелем убийства. Исходник: WEB-DL 1080p Тип релиза: WEB-DLRip Контейнер: AVI Видео: 720x512 (1,406:1), 25,000 кадров/сек, XviD 73 ~ 1 462 кбит/сек, 0.159 бит/пиксель Аудио: 48 кГц, Dolby Digital AC3 2.0, 192 кбит/сек Раздача от:
[+] MediaInfo Общее Полное имя : Три дня вне закона.1992.WEB-DLRip__by_AVP_Studio.avi Формат : AVI Формат/Информация : Audio Video Interleave Настройки формата : BitmapInfoHeader / WaveFormatEx Размер файла : 1,09 Гбайт Продолжительность : 1 ч. 33 м. Общий поток : 1 663 Кбит/сек Частота кадров : 25,000 кадров/сек Программа кодирования : VirtualDubMod 1.5.10.3 | www.virtualdub-fr.org || (build 2550/release) Библиотека кодирования : VirtualDubMod build 2550/release Видео Идентификатор : 0 Формат : MPEG-4 Visual Профиль формата : Advanced Simple@L5 Настройки формата : BVOP1 / Custom Matrix Параметр BVOP формата : 1 Параметр QPel формата : Нет Параметр GMC формата : Без точки перехода Параметр матрицы формата : Выборочная Идентификатор кодека : XVID Идентификатор кодека/Подсказка : XviD Продолжительность : 1 ч. 33 м. Битрейт : 1 462 Кбит/сек Ширина : 720 пикселей Высота : 512 пикселей Соотношение сторон : 1,406 Частота кадров : 25,000 кадров/сек Цветовое пространство : YUV Субдискретизация насыщенности : 4:2:0 Битовая глубина : 8 бит Тип развёртки : Прогрессивная Метод сжатия : С потерями Бит/(Пиксели*Кадры) : 0.159 Размер потока : 981 Мбайт (88%) Библиотека кодирования : XviD 73 Аудио Идентификатор : 1 Формат : AC-3 Формат/Информация : Audio Coding 3 Коммерческое название : Dolby Digital Идентификатор кодека : 2000 Продолжительность : 1 ч. 33 м. Вид битрейта : Постоянный Битрейт : 192 Кбит/сек Каналы : 2 канала Channel layout : L R Частота : 48,0 КГц Частота кадров : 31,250 кадров/сек (1536 SPF) Метод сжатия : С потерями Размер потока : 129 Мбайт (12%) Выравнивание : Разделение по промежуткам Продолжительность промежутка : 40 мс. (1,00 видеокадр) Время предзагрузки промежутка : 500 мс
[+] Скриншоты

Всего файлов в раздаче: 1 
Три дня вне закона.1992.WEB-DLRip_[New-team]_by_AVP_Studio.avi1.09 GB

Похожие раздачи по запросу - Три
2024-04-13 magnet Тимофей Царенко - Три сапога пара [4 книги] (2022-2024) МР3 1.08 GB ↑ 0 ↓ 0
2024-04-06 magnet Три амигос! / ¡Three Amigos! (1986) HDRip-AVC от DoMiNo | D 745.19 MB ↑ 0 ↓ 0
2024-04-04 magnet Три мушкетера: Д’Артаньян / Les trois mousquetaires: D'Artagnan (2023) WEB-DLRip-AVC от DoMiNo & селезень | D | Локализованная версия 1.95 GB ↑ 0 ↓ 0
2024-03-31 magnet Три мушкетёра: Миледи / Les Trois Mousquetaires: Milady (2023) WEB-DLRip-AVC | КПК | D | Локализованная версия 500.07 MB ↑ 0 ↓ 0
2024-03-30 magnet Три орешка для Золушки / Tři oříšky pro Popelku (1973) BDRip-AVC | D, P 2.09 GB ↑ 2 ↓ 0
2024-03-29 magnet Три мушкетёра: Миледи / Les Trois Mousquetaires: Milady [2023, боевик, приключения, история, WEB-DLRip-AVC] [Локализованный видеоряд] Dub (Пифагор) 1.46 GB ↑ 1 ↓ 0
2024-03-29 magnet Три мушкетёра: Миледи / Les Trois Mousquetaires: Milady (2023) WEB-DLRip-AVC от DoMiNo & селезень | D | Локализованная версия 1.80 GB ↑ 2 ↓ 0

Комментарии

Olegus
Ди Каприо то как постарел, на втором скриншоте


Зарегистрируйтесь чтобы добавить комментарий
Торрент клиент
byTorrent - программа для загрузки торрент-файлов.

Скачать byTorrent.exe (1,5 МБ)

Скачать byTorrent.zip (0,6 МБ)

Поддержи torrent.by
российских рублей
(300 российских рублей это 4$)

Обратная связь rss

End game ©