↑↓torrent.by
Поиск
Логин:  Регистрация
Пароль:

Созвездие / Constellation [01x01-07 из 08] (2024) WEB-DLRip-AVC от DoMiNo & селезень | LostFilm

download Скачать торрент-файл   magnet Магнитная ссылка Размер: 4.49 GB Добавлен: 2024-03-24 11:00
Пиры будут получены из сети DHT
Последний сидер был замечен 2024-03-24 11:00
Информация о фильме Название: Созвездие Оригинальное название: Constellation Год выхода: 2024 Жанр: Фантастика, триллер Режиссёр: Мишель Макларен, Джозеф Седар, Оливер Хиршбигель В ролях: Нуми Рапас, Ребекка Скроггс, Клэр-Хоуп Эшити, Джонатан Бэнкс, Михель Диркс, Джеймс Д’Арси, Давина Коулман, Рози Коулман, Уильям Кэтлетт, Барбара Зукова О фильме: «Созвездие» — мрачный сай-фай в обертке психологического триллера от платформы Apple TV+, созданный Питером Харнессом («Война миров», «Джонатан Стрендж и мистер Норрелл»). Пугающая и драматичная история исследует, что происходит с астронавтом после возвращения из космоса, каким физиологическим и психологическим изменениям он подвержен. Все это разворачивается на фоне интригующей линии об экспериментальном устройстве NASA, которое, кажется, является причиной этих изменений... Или нет? Главную роль в шоу исполнила Нуми Рапас («Девушка с татуировкой дракона»), а компанию ей составили звезда сериала «Лучше звоните Солу» Джонатан Бэнкс, Джеймс Д'Арси («Агент Картер»), Барбара Зукова («Дом с прислугой») и другие. Действие разворачивается в двух временных линиях. В одной астронавт Джо Эрикссон (Нуми Рапас) терпит бедствие на Международной космической станции. В результате аварии система жизнеобеспечения и одна из спасательных капсул оказываются повреждены, и Джо нужно в одиночку, отправив свою команду на Землю, починить капсулу и вернуться самой. В другом временном периоде оправляющаяся от пережитой трагедии Джо уже воссоединилась с семьей, но обнаруживает, что часть ее воспоминаний о родных и привычной жизни как будто искажены, а часть фрагментов жизни и вовсе пропала... Страна: США, Великобритания, Франция Студия: Haut Et Court Tv Продолжительность: ~00:55:00 серия Перевод: Профессиональный (многоголосый, закадровый) | LostFilm Субтитры: Русские (Forced, Full, SDH), Английские (Forced, Full, SDH) Файл Формат: Matroska Качество: WEB-DLRip-AVC Видео: 1024x428 at 23.976 fps, x264@L4.1, ~1600 kbps Аудио: AAC, 2 ch, ~96 kbps - | Русский | Формат субтитров: softsub (SRT) ***Рип от: -=DoMiNo=-
[+] M/Ix264 : frame I:660 Avg QP:13.62 size: 63170 x264 : frame P:18097 Avg QP:17.23 size: 19702 x264 : frame B:63404 Avg QP:18.21 size: 4529 General Unique ID : 261525516167052272313661540074359107107 (0xC4BFFB76C03D0A7D428BFA1090202E23) Complete name : E:Constellation.S01.2024.WEB-DLRip.x264.seleZenConstellation.S01E01.2024.WEB-DLRip.x264.seleZen.mkv Format : Matroska Format version : Version 4 File size : 706 MiB Duration : 58 min 7 s Overall bit rate : 1 697 kb/s Frame rate : 23.976 FPS Movie name : Constellation.S01E01.2024.WEB-DLRip.x264.seleZen Encoded date : 2024-03-21 07:50:18 UTC Writing application : mkvmerge v83.0 ('Circle Of Friends') 64-bit Writing library : libebml v1.4.5 + libmatroska v1.7.1 Cover : Yes Attachments : cover.jpg / small_cover.jpg Video ID : 1 Format : AVC Format/Info : Advanced Video Codec Format profile : High@L4.1 Format settings : CABAC / 10 Ref Frames Format settings, CABAC : Yes Format settings, Reference : 10 frames Codec ID : V_MPEG4/ISO/AVC Duration : 58 min 7 s Bit rate : 1 600 kb/s Width : 1 024 pixels Height : 428 pixels Display aspect ratio : 2.40:1 Frame rate mode : Constant Frame rate : 23.976 (24000/1001) FPS Color space : YUV Chroma subsampling : 4:2:0 Bit depth : 8 bits Scan type : Progressive Bits/(Pixel*Frame) : 0.152 Stream size : 665 MiB (94%) Title : -=DoMiNo=- Writing library : x264 core 164 r3186 -DoMiNo Encoding settings : cabac=1 / ref=10 / deblock=1:-2:-1 / analyse=0x3:0x133 / me=umh / subme=10 / psy=1 / psy_rd=1.00:0.15 / mixed_ref=1 / me_range=32 / chroma_me=1 / trellis=2 / 8x8dct=1 / cqm=0 / deadzone=21,11 / fast_pskip=0 / chroma_qp_offset=-3 / threads=13 / lookahead_threads=3 / sliced_threads=0 / nr=0 / decimate=0 / interlaced=0 / bluray_compat=0 / constrained_intra=0 / bframes=10 / b_pyramid=2 / b_adapt=2 / b_bias=0 / direct=3 / weightb=1 / open_gop=0 / weightp=2 / keyint=240 / keyint_min=23 / scenecut=40 / intra_refresh=0 / rc_lookahead=60 / rc=2pass / mbtree=0 / bitrate=1600 / ratetol=1.0 / qcomp=0.60 / qpmin=0 / qpmax=69 / qpstep=4 / cplxblur=20.0 / qblur=0.5 / vbv_maxrate=50000 / vbv_bufsize=62500 / nal_hrd=none / filler=0 / ip_ratio=1.40 / pb_ratio=1.30 / aq=3:0.90 Language : English Default : Yes Forced : No Color range : Limited Color primaries : BT.709 Transfer characteristics : BT.709 Matrix coefficients : BT.709 Audio ID : 2 Format : AAC LC SBR Format/Info : Advanced Audio Codec Low Complexity with Spectral Band Replication Commercial name : HE-AAC Format settings : Explicit Codec ID : A_AAC-2 Duration : 58 min 7 s Bit rate : 96.0 kb/s Channel(s) : 2 channels Channel layout : L R Sampling rate : 48.0 kHz Frame rate : 23.438 FPS (2048 SPF) Compression mode : Lossy Stream size : 39.4 MiB (6%) Title : MVO Language : Russian Default : Yes Forced : No Text #1 ID : 3 Format : UTF-8 Codec ID : S_TEXT/UTF8 Codec ID/Info : UTF-8 Plain Text Duration : 57 min 4 s Bit rate : 3 b/s Frame rate : 0.008 FPS Count of elements : 27 Stream size : 1.36 KiB (0%) Title : Forced Language : Russian Default : No Forced : No Text #2 ID : 4 Format : UTF-8 Codec ID : S_TEXT/UTF8 Codec ID/Info : UTF-8 Plain Text Duration : 57 min 44 s Bit rate : 69 b/s Frame rate : 0.176 FPS Count of elements : 610 Stream size : 29.5 KiB (0%) Title : Full Language : Russian Default : No Forced : No Text #3 ID : 5 Format : UTF-8 Codec ID : S_TEXT/UTF8 Codec ID/Info : UTF-8 Plain Text Duration : 57 min 47 s Bit rate : 91 b/s Frame rate : 0.215 FPS Count of elements : 747 Stream size : 38.7 KiB (0%) Title : SDH Language : Russian Default : No Forced : No Text #4 ID : 6 Format : UTF-8 Codec ID : S_TEXT/UTF8 Codec ID/Info : UTF-8 Plain Text Duration : 56 min 14 s Bit rate : 2 b/s Frame rate : 0.011 FPS Count of elements : 36 Stream size : 1.04 KiB (0%) Title : English Language : English Default : No Forced : No Text #5 ID : 7 Format : UTF-8 Codec ID : S_TEXT/UTF8 Codec ID/Info : UTF-8 Plain Text Duration : 56 min 14 s Bit rate : 41 b/s Frame rate : 0.164 FPS Count of elements : 552 Stream size : 17.2 KiB (0%) Title : English Language : English Default : No Forced : No Text #6 ID : 8 Format : UTF-8 Codec ID : S_TEXT/UTF8 Codec ID/Info : UTF-8 Plain Text Duration : 56 min 33 s Bit rate : 54 b/s Frame rate : 0.209 FPS Count of elements : 709 Stream size : 22.7 KiB (0%) Title : English Language : English Default : No Forced : No
Релиз: Присоединяйся к: Кликай на баннеры.

Всего файлов в раздаче: 7 
Constellation.S01E01.2024.WEB-DLRip.x264.seleZen.mkv705.66 MB
Constellation.S01E02.2024.WEB-DLRip.x264.seleZen.mkv663.40 MB
Constellation.S01E03.2024.WEB-DLRip.x264.seleZen.mkv612.47 MB
Constellation.S01E04.2024.WEB-DLRip.x264.seleZen.mkv640.34 MB
Constellation.S01E05.2024.WEB-DLRip.x264.seleZen.mkv629.94 MB
Constellation.S01E06.2024.WEB-DLRip.x264.seleZen.mkv693.44 MB
Constellation.S01E07.2024.WEB-DLRip.x264.seleZen.mkv653.50 MB

Похожие раздачи по запросу - Созвездие
2024-04-02 magnet Созвездие / Constellation [S01] (2024) WEB-DLRip | LostFilm 6.01 GB ↑ 0 ↓ 2
2024-04-02 magnet Созвездие / Constellation [S01] (2024) WEB-DL 1080p | LostFilm, HDrezka Studio, TVShows, Red Head Sound 36.08 GB ↑ 0 ↓ 5
2024-03-31 magnet Созвездие / Constellation [S01] (2024) WEB-DLRip-AVC от DoMiNo & селезень | LostFilm 5.11 GB ↑ 0 ↓ 0
2024-03-30 magnet Созвездие / Constellation [S01] (2024) WEB-DL 720p | LostFilm, NewComers, HDRezka Studio 15.07 GB ↑ 0 ↓ 0
2024-03-29 magnet Созвездие / Constellation [S01] (2024) WEB-DL-HEVC 2160p от NewComers | 4K | HDR | P 77.33 GB ↑ 0 ↓ 1
2024-03-29 magnet Созвездие / Constellation [S01] (2024) WEB-DLRip | NewComers 3.72 GB ↑ 0 ↓ 0
2024-03-29 magnet Созвездие / Constellation [S01] (2024) WEB-DL 1080p от NewComers | P 34.35 GB ↑ 0 ↓ 0

Комментарии


Зарегистрируйтесь чтобы добавить комментарий
Торрент клиент
byTorrent - программа для загрузки торрент-файлов.

Скачать byTorrent.exe (1,5 МБ)

Скачать byTorrent.zip (0,6 МБ)

Поддержи torrent.by
российских рублей
(300 российских рублей это 4$)

Обратная связь rss

End game ©