↑↓torrent.by
Поиск
Логин:  Регистрация
Пароль:

Хало / Halo [S02] (2024) WEB-DL 1080p от Jaskier | P

download Скачать торрент-файл   magnet Магнитная ссылка Размер: 18.89 GB Раздают: 1 Качают: 2 Добавлен: 2024-03-24 11:00
Пиры будут получены из сети DHT
Последний сидер был замечен сегодня в 17:00
Информация о фильме Название: Хало Оригинальное название: Halo Год выхода: 2024 Жанр: фантастика, боевик Режиссер: Отто Батхёрст, Джонатан Либесман, Роэль Рейн В ролях: Пабло Шрайбер, Шабана Азми, Наташа Кулзач, Олив Грэй, Ерин Ха, Бентли Калу, Кейт Кеннеди, Чарли Мерфи, Дэнни Сапани, Джен Тейлор О фильме: XXVI век. Человечество в лице Космического командования объединенных наций вынуждено сражаться с военно-религиозным союзом под названием Ковенант. К сожалению, земляне проигрывают инопланетянам по всем фронтам, но надежда появляется после того, как в дело вступает генетически усовершенствованный солдат Мастер Чиф. Он отправляется на странную искусственно созданную планету в виде кольца, чтобы разгадать ее предназначение. Страна: США Студия: 343 Industries, Amblin Television, Chapter Eleven Продолжительность: ~00:55:00 Перевод: Профессиональный (многоголосый закадровый) Jaskier Файл Кодек: MKV Качество: WEB-DL 1080p Видео: AVC, 1920x872 (2.2:1), 23.976 fps, ~4719 kbps Звук: Аудио 1: Русский, AC-3, 48 kHz, 6 ch, 384 kbps | Jaskier Аудио 2: Английский, E-AC-3, 48 kHz, 6 ch, 640 kbps Субтитры: Английские (SDH) Семпл
[+] Список серий 01. Убежище / Sanctuary 02. Меч / Sword 03. Визеград / Visegrad 04. Предел / Reach 05. Алерия / Aleria 06. Оникс / Onyx 07. Фермопилы / Thermopylae 08. Хало / Halo
[+] MediaInfo General Unique ID : 185156607717901504628491343224377202511 (0x8B4BDD92C07E6B0FA7A7DE57491C574F) Complete name : E:TorrentHalo.S02.1080p.WEB.H264-Jaskierhalo.s02e01.1080p.web.h264-Jaskier.mkv Format : Matroska Format version : Version 4 File size : 2.36 GiB Duration : 57 min 42 s Overall bit rate : 5 859 kb/s Encoded date : UTC 2024-02-24 01:38:41 Writing application : mkvmerge v6.6.0 ('The Edge Of The In Between') built on Dec 1 2013 17:55:00 Writing library : libebml v1.3.0 + libmatroska v1.4.1 Video ID : 1 Format : AVC Format/Info : Advanced Video Codec Format profile : High@L4 Format settings : CABAC / 4 Ref Frames Format settings, CABAC : Yes Format settings, Reference frames : 4 frames Codec ID : V_MPEG4/ISO/AVC Duration : 57 min 42 s Bit rate mode : Constant Bit rate : 4 719 kb/s Nominal bit rate : 10 000 kb/s Width : 1 920 pixels Height : 872 pixels Display aspect ratio : 2.2:1 Frame rate mode : Constant Frame rate : 23.976 (24000/1001) FPS Color space : YUV Chroma subsampling : 4:2:0 Bit depth : 8 bits Scan type : Progressive Bits/(Pixel*Frame) : 0.118 Stream size : 1.90 GiB (81%) Default : Yes Forced : No Color range : Limited Color primaries : BT.709 Transfer characteristics : BT.709 Matrix coefficients : BT.709 Statistics Tags Issue : mkvmerge v80.0 ('Roundabout') 64-bit / mkvmerge v6.6.0 ('The Edge Of The In Between') built on Dec 1 2013 17:55:00 2024-02-24 01:38:41 FromStats_BitRate : 4833152 FromStats_Duration : 00:57:42.501000000 FromStats_FrameCount : 83017 FromStats_StreamSize : 2091849399 Audio #1 ID : 2 Format : AC-3 Format/Info : Audio Coding 3 Commercial name : Dolby Digital Codec ID : A_AC3 Duration : 57 min 42 s Bit rate mode : Constant Bit rate : 384 kb/s Channel(s) : 6 channels Channel layout : L R C LFE Ls Rs Sampling rate : 48.0 kHz Frame rate : 31.250 FPS (1536 SPF) Compression mode : Lossy Stream size : 159 MiB (7%) Title : Jaskier Language : Russian Service kind : Complete Main Default : Yes Forced : No Audio #2 ID : 3 Format : E-AC-3 Format/Info : Enhanced AC-3 Commercial name : Dolby Digital Plus Codec ID : A_EAC3 Duration : 57 min 42 s Bit rate mode : Constant Bit rate : 640 kb/s Channel(s) : 6 channels Channel layout : L R C LFE Ls Rs Sampling rate : 48.0 kHz Frame rate : 31.250 FPS (1536 SPF) Compression mode : Lossy Stream size : 264 MiB (11%) Title : Original Language : English Service kind : Complete Main Default : No Forced : No Statistics Tags Issue : mkvmerge v80.0 ('Roundabout') 64-bit / mkvmerge v6.6.0 ('The Edge Of The In Between') built on Dec 1 2013 17:55:00 2024-02-24 01:38:41 FromStats_BitRate : 640000 FromStats_Duration : 00:57:42.528000000 FromStats_FrameCount : 108204 FromStats_StreamSize : 277002240 Text ID : 4 Format : UTF-8 Codec ID : S_TEXT/UTF8 Codec ID/Info : UTF-8 Plain Text Title : English (SDH) Language : English Default : No Forced : No Statistics Tags Issue : mkvmerge v80.0 ('Roundabout') 64-bit / mkvmerge v6.6.0 ('The Edge Of The In Between') built on Dec 1 2013 17:55:00 2024-02-24 01:38:41 FromStats_BitRate : 65 FromStats_Duration : 00:55:43.815000000 FromStats_FrameCount : 920 FromStats_StreamSize : 27249
[+] Скриншоты
Релиз от: Jaskier

Всего файлов в раздаче: 8 
halo.s02e01.1080p.web.h264-Jaskier.mkv2.36 GB
halo.s02e02.1080p.web.h264-Jaskier.mkv1.93 GB
halo.s02e03.1080p.web.h264-Jaskier.mkv2.16 GB
halo.s02e04.1080p.web.h264-Jaskier.mkv2.18 GB
halo.s02e05.1080p.web.h264-Jaskier.mkv3.08 GB
halo.s02e06.1080p.web.h264-Jaskier.mkv2.50 GB
halo.s02e07.1080p.web.h264-Jaskier.mkv2.18 GB
halo.s02e08.1080p.web.h264-Jaskier.mkv2.50 GB

Похожие раздачи по запросу - Хало
2024-04-07 magnet Хало / Halo [S02] (2024) WEB-DL-HEVC 2160p | 4K | HDR | Dolby Vision | AlexFilm 1К45.33 GB ↑ 0 ↓ 1
2024-03-28 magnet Хало / Halo [S01-02] (2022-2024) WEB-DLRip-AVC | КПК | AlexFilm 3.99 GB ↑ 0 ↓ 0
2024-03-24 magnet Хало / Halo [S02] (2024) WEB-DL 1080p | LostFilm, Jaskier, NewComers, ColdFilm 1К22.43 GB ↑ 2 ↓ 0
2024-03-23 magnet Хало / Halo [S02] (2024) WEB-DLRip-AVC от DoMiNo & селезень | LostFilm 4.97 GB ↑ 0 ↓ 0
2024-03-23 magnet Хало / Halo [S02] (2024) WEB-DL 1080p от NewComers | P 1К20.02 GB ↑ 0 ↓ 1
2024-03-23 magnet Хало / Halo [S02] (2024) WEB-DL-HEVC 2160p от NewComers | 4K | HDR | P 44.08 GB ↑ 0 ↓ 0
2024-03-23 magnet Хало / Halo [S01-02] (2022-2024) WEB-DLRip | LostFilm 1К12.16 GB ↑ 0 ↓ 0

Комментарии


Зарегистрируйтесь чтобы добавить комментарий
Торрент клиент
byTorrent - программа для загрузки торрент-файлов.

Скачать byTorrent.exe (1,5 МБ)

Скачать byTorrent.zip (0,6 МБ)

Поддержи torrent.by
российских рублей
(300 российских рублей это 4$)

Обратная связь rss

End game ©