↑↓torrent.by
Поиск
Логин:  Регистрация
Пароль:

Капкан: Судная ночь / Night of the Hunted (2023) BDRip 720p от MegaPeer | D

download Скачать торрент-файл   magnet Магнитная ссылка Размер: 3.25 GB Добавлен: 2024-03-24 11:00
Пиры будут получены из сети DHT
Последний сидер был замечен 2024-04-04 16:38
Информация Название: Капкан: Судная ночь Оригинальное название: Night of the Hunted Год выхода: 2023 Жанр: Триллер Режиссер: Франк Халфун В ролях: Джереми Скиппио, Дж. Джон Билер, Монайя Абдельрахим, Эббе Андерсен, Брайан Брейтер, Бренда Нуньес, Алекс Попович, Айзиа Рейс, Камилль Роу, Сташа Станич Описание: Выжить в схватке с беспощадным стрелком, скрывающим свое лицо, очень непросто. У маньяка своя философия, правила жизни и мотивы, по которым он выбирает, кто в эту ночь станет следующей жертвой, а кого следует пощадить. Страна: США, Франция Студия: Cinestesia, Getaway Films, Heavy Rainfall, Logical Content Ventures, Logical Pictures, MoJo Продолжительность: 01:34:39 Перевод: Профессиональный (полное дублирование) | Vox Records *** В русском WEBDL отсутствуют сцены порядком 30сек. по сравнению с Blu-ray, перевод не требуется. Файл Качество: BDRip 720p Исходник: Night.of.the.Hunted.2023.MULTi.COMPLETE.BLURAY-MONUMENT Формат: MKV Кодек: MPEG-4 AVC Видео: 1280x536 (2.40:1), 24 fps, MPEG-4 AVC ~ 3504 Kbps avg, 0.213 bit/pixel Аудио: AC3, 48 kHz, 6 ch, ~384.00 kbps avg | русский | DUB | Аудио: E-AC3, 48 kHz, 6 ch, ~384.00 kbps avg | русский | DUB | Аудио: AC3, 48 kHz, 6 ch, ~640.00 kbps avg | английский | Субтитры: Русские (Forced), Английские (Full, SDH)
[+] Инфо-файлОбщее Уникальный идентификатор : 182302282086219706715453274679348896806 (0x8926247453860F9AA1B8D154FCD12426) Полное имя : Night.of.the.Hunted.2023.720p.BluRay.DD.5.1.x264-MegaPeer.mkv Формат : Matroska Версия формата : Version 4 Размер файла : 3,25 Гбайт Продолжительность : 1 ч. 34 м. Общий поток : 4 910 Кбит/сек Частота кадров : 24,000 кадра/сек Название фильма : Капкан: Судная ночь / Night of the Hunted (2023) от stillet@MegaPeer Дата кодирования : 2024-03-23 21:25:21 UTC Программа кодирования : mkvmerge v15.0.0 ('Duel with the Devil') 64-bit Библиотека кодирования : libebml v1.3.5 + libmatroska v1.4.5 Обложка : Yes Attachments : cover.jpg Видео Идентификатор : 1 Формат : AVC Формат/Информация : Advanced Video Codec Профиль формата : High@L4.1 Настройки формата : CABAC / 11 Ref Frames Параметр CABAC формата : Да Параметр RefFrames формата : 11 кадров Идентификатор кодека : V_MPEG4/ISO/AVC Продолжительность : 1 ч. 34 м. Битрейт : 3 504 Кбит/сек Ширина : 1 280 пикселей Высота : 536 пикселей Соотношение сторон : 2,40:1 Режим частоты кадров : Постоянный Частота кадров : 24,000 кадра/сек Цветовое пространство : YUV Субдискретизация насыщенности : 4:2:0 Битовая глубина : 8 бит Тип развёртки : Прогрессивная Бит/(Пиксели*Кадры) : 0.213 Размер потока : 2,31 Гбайт (71%) Библиотека кодирования : x264 core 164 r3156+57M stillet t_mod_New Настройки программы : cabac=1 / ref=11 / deblock=1:-3:-3 / analyse=0x3:0x113 / me=umh / subme=10 / psy=1 / fade_compensate=0.00 / psy_rd=1.03:0.02 / mixed_ref=1 / me_range=32 / chroma_me=1 / trellis=2 / 8x8dct=1 / cqm=0 / deadzone=21,11 / fast_pskip=0 / chroma_qp_offset=-3 / threads=12 / lookahead_threads=3 / sliced_threads=0 / nr=0 / decimate=0 / interlaced=0 / bluray_compat=0 / constrained_intra=0 / fgo=0 / bframes=14 / b_pyramid=2 / b_adapt=2 / b_bias=0 / direct=3 / weightb=1 / open_gop=0 / weightp=2 / keyint=240 / keyint_min=24 / scenecut=40 / intra_refresh=0 / rc_lookahead=40 / rc=2pass / mbtree=0 / bitrate=3504 / ratetol=1.0 / qcomp=0.60 / qpmin=0:0:0 / qpmax=69:69:69 / qpstep=4 / cplxblur=20.0 / qblur=0.5 / vbv_maxrate=50000 / vbv_bufsize=62500 / nal_hrd=none / filler=0 / ip_ratio=1.40 / pb_ratio=1.30 / aq=1:1.10 / aq-sensitivity=10.00 / aq-factor=1.00:1.00:1.00 / aq2=0 / aq3=0 Язык : English Default : Да Forced : Нет Аудио #1 Идентификатор : 2 Формат : AC-3 Формат/Информация : Audio Coding 3 Коммерческое название : Dolby Digital Идентификатор кодека : A_AC3 Продолжительность : 1 ч. 34 м. Вид битрейта : Постоянный Битрейт : 384 Кбит/сек Каналы : 6 каналов Channel layout : L R C LFE Ls Rs Частота : 48,0 КГц Частота кадров : 31,250 кадров/сек (1536 SPF) Метод сжатия : С потерями Размер потока : 260 Мбайт (8%) Заголовок : DUB | Vox Records Язык : Russian Service kind : Complete Main Default : Да Forced : Да Аудио #2 Идентификатор : 3 Формат : E-AC-3 Формат/Информация : Enhanced AC-3 Коммерческое название : Dolby Digital Plus Идентификатор кодека : A_EAC3 Продолжительность : 1 ч. 34 м. Вид битрейта : Постоянный Битрейт : 384 Кбит/сек Каналы : 6 каналов Channel layout : L R C LFE Ls Rs Частота : 48,0 КГц Частота кадров : 31,250 кадров/сек (1536 SPF) Метод сжатия : С потерями Размер потока : 260 Мбайт (8%) Заголовок : DUB | Vox Records Язык : Russian Service kind : Complete Main Default : Нет Forced : Нет Аудио #3 Идентификатор : 4 Формат : AC-3 Формат/Информация : Audio Coding 3 Коммерческое название : Dolby Digital Идентификатор кодека : A_AC3 Продолжительность : 1 ч. 34 м. Вид битрейта : Постоянный Битрейт : 640 Кбит/сек Каналы : 6 каналов Channel layout : L R C LFE Ls Rs Частота : 48,0 КГц Частота кадров : 31,250 кадров/сек (1536 SPF) Метод сжатия : С потерями Размер потока : 433 Мбайт (13%) Язык : English Service kind : Complete Main Default : Нет Forced : Нет Текст #1 Идентификатор : 5 Формат : UTF-8 Идентификатор кодека : S_TEXT/UTF8 Идентификатор кодека/Информация : UTF-8 Plain Text Продолжительность : 1 ч. 0 м. Битрейт : 0 бит/сек Частота кадров : 0,003 кадр/сек Count of elements : 12 Размер потока : 388 байт (0%) Заголовок : Forced Язык : Russian Default : Да Forced : Да Текст #2 Идентификатор : 6 Формат : UTF-8 Идентификатор кодека : S_TEXT/UTF8 Идентификатор кодека/Информация : UTF-8 Plain Text Продолжительность : 1 ч. 26 м. Битрейт : 36 бит/сек Частота кадров : 0,157 кадр/сек Count of elements : 816 Размер потока : 23,5 Кбайт (0%) Заголовок : Full Язык : English Default : Нет Forced : Нет Текст #3 Идентификатор : 7 Формат : UTF-8 Идентификатор кодека : S_TEXT/UTF8 Идентификатор кодека/Информация : UTF-8 Plain Text Продолжительность : 1 ч. 30 м. Битрейт : 39 бит/сек Частота кадров : 0,176 кадр/сек Count of elements : 959 Размер потока : 26,5 Кбайт (0%) Заголовок : SDH Язык : English Default : Нет Forced : Нет Меню 00:00:00.000 : Chapter 01 00:07:04.708 : Chapter 02 00:14:09.333 : Chapter 03 00:21:04.250 : Chapter 04 00:28:41.541 : Chapter 05 00:34:14.500 : Chapter 06 00:42:56.041 : Chapter 07 00:48:42.583 : Chapter 08 00:57:17.750 : Chapter 09 01:06:00.791 : Chapter 10 01:14:00.916 : Chapter 11 01:19:56.916 : Chapter 12
Релиз:

Всего файлов в раздаче: 1 
Night.of.the.Hunted.2023.720p.BluRay.DD.5.1.x264-MegaPeer.mkv3.25 GB

Похожие раздачи по запросу - Капкан
2024-03-27 magnet Капкан: Судная ночь / Night of the Hunted [2023, триллер, HDRip-AVC] Dub (Vox Records) 1.46 GB ↑ 5 ↓ 0
2024-03-24 magnet Капкан: Судная ночь / Night of the Hunted (2023) BDRip от MegaPeer | D 1.46 GB ↑ 0 ↓ 0
2024-03-24 magnet Капкан: Судная ночь / Night of the Hunted (2023) BDRip 1080p от MegaPeer | D 6.33 GB ↑ 0 ↓ 0
2024-03-16 magnet Подводный капкан / The Dive (2023) BDRip-AVC от DoMiNo & селезень | D 1.46 GB ↑ 0 ↓ 3
2024-03-16 magnet Подводный капкан / The Dive (2023) BDRemux 1080p от селезень | D 16.33 GB ↑ 0 ↓ 3
2024-03-11 magnet Капкан / Safe House (2023) BDRip 720p от DoMiNo & селезень | D 3.37 GB ↑ 0 ↓ 0
2024-03-10 magnet Капкан / Safe House (2023) BDRip от New-Team | D 1.46 GB ↑ 0 ↓ 0

Комментарии


Зарегистрируйтесь чтобы добавить комментарий
Торрент клиент
byTorrent - программа для загрузки торрент-файлов.

Скачать byTorrent.exe (1,5 МБ)

Скачать byTorrent.zip (0,6 МБ)

Поддержи torrent.by
российских рублей
(300 российских рублей это 4$)

Обратная связь rss

End game ©