↑↓torrent.by
Поиск
Логин:  Регистрация
Пароль:

Провожающая в последний путь Фрирен / Sousou no Frieren [01x01-27 из 28] (2023) WEBRip 1080p от KORSARS | D | StudioBand

download Скачать торрент-файл   magnet Магнитная ссылка Размер: 10.97 GB Добавлен: 2024-03-24 17:00
Пиры будут получены из сети DHT
Последний сидер был замечен 2024-03-30 21:07
Информация о фильме Название: Провожающая в последний путь Фрирен Оригинальное название: Sousou no Frieren Год выхода: 2023 Жанр: фэнтези, приключения, драма Режиссер: Кэйитиро Сайто Роли озвучивали: Кана Итиносэ, Ацуми Танэдзаки, Тиаки Кобаяси, Ёдзи Уэда, Ацуко Танака, Хироки Тоти, Нобухико Окамото, Хироки Ясумото О фильме: Одержав победу над Королём демонов, отряд героя Химмеля вернулся домой. Приключение, растянувшееся на десятилетие, подошло к завершению. Волшебница-эльф Фрирен и её отважные товарищи принесли людям мир и разошлись в разные стороны, чтобы спокойно прожить остаток жизни. Однако не всех членов отряда ждёт одинаковая участь. Для эльфов время течёт иначе, поэтому Фрирен вынужденно становится свидетелем того, как её спутники один за другим постепенно уходят из жизни. Девушка осознала, что годы, проведённые в отряде героя, пронеслись в один миг, как падающая звезда в бескрайнем космосе её жизни, и столкнулась с сожалениями об упущенных возможностях. Сможет ли она смириться со смертью друзей и понять, что значит жизнь для окружающих её людей? Фрирен начинает новое путешествие, чтобы найти ответ. Страна: Япония Студия: Madhouse Продолжительность: ~ 00:26:00 (серия) Перевод: Дублированный (неофициальный) | StudioBand Файл Формат: MKV Кодек: MPEG-4 AVC Качество: WEBRip 1080p Видео: 1920x1080, ~ 2 100 kb/s, 23.976 FPS. 8 bits Аудио (русский): AAC LC, ~ 163 kb/s, 2 channels, 48.0 kHz | StudioBand Субтитры: русские (хардсаб на надписи) Релиз от:
[+] MediaInfo General Unique ID : 44264554663050251245969831060018766598 (0x214D0B0A9238E2653711FD4B34232306) Complete name : _Sousou.no.Frieren..WEBRip.1080p.StudioBand.mkv Format : Matroska Format version : Version 4 File size : 448 MiB Duration : 26 min 0 s Overall bit rate : 2 411 kb/s Frame rate : 23.976 FPS Movie name : _Sousou.no.Frieren..WEBRip.1080p.StudioBand Encoded date : 2023-11-10 17:00:23 UTC Writing application : mkvmerge v80.0 ('Roundabout') 64-bit Writing library : libebml v1.4.4 + libmatroska v1.7.1 Video ID : 1 Format : AVC Format/Info : Advanced Video Codec Format profile : Main@L4 Format settings : CABAC / 4 Ref Frames Format settings, CABAC : Yes Format settings, Reference : 4 frames Codec ID : V_MPEG4/ISO/AVC Duration : 25 min 59 s Bit rate : 2 246 kb/s Nominal bit rate : 2 102 kb/s Width : 1 920 pixels Height : 1 080 pixels Display aspect ratio : 16:9 Frame rate mode : Constant Frame rate : 23.976 (24000/1001) FPS Color space : YUV Chroma subsampling : 4:2:0 Bit depth : 8 bits Scan type : Progressive Bits/(Pixel*Frame) : 0.045 Stream size : 418 MiB (93%) Title : _Sousou.no.Frieren..WEBRip.1080p.StudioBand Writing library : x264 core 164 r3100 ed0f7a6 Encoding settings : cabac=1 / ref=3 / deblock=1:0:0 / analyse=0x1:0x111 / me=hex / subme=7 / psy=1 / psy_rd=1.00:0.00 / mixed_ref=1 / me_range=16 / chroma_me=1 / trellis=1 / 8x8dct=0 / cqm=0 / deadzone=21,11 / fast_pskip=1 / chroma_qp_offset=-2 / threads=9 / lookahead_threads=1 / sliced_threads=0 / nr=0 / decimate=1 / interlaced=0 / bluray_compat=0 / constrained_intra=0 / bframes=3 / b_pyramid=2 / b_adapt=1 / b_bias=0 / direct=1 / weightb=1 / open_gop=0 / weightp=2 / keyint=240 / keyint_min=24 / scenecut=40 / intra_refresh=0 / rc_lookahead=40 / rc=abr / mbtree=1 / bitrate=2102 / ratetol=1.0 / qcomp=0.60 / qpmin=0 / qpmax=69 / qpstep=4 / vbv_maxrate=20000 / vbv_bufsize=25000 / nal_hrd=none / filler=0 / ip_ratio=1.40 / aq=1:1.00 Default : Yes Forced : No Color range : Limited Color primaries : BT.709 Transfer characteristics : BT.709 Matrix coefficients : BT.709 Audio ID : 2 Format : AAC LC Format/Info : Advanced Audio Codec Low Complexity Codec ID : A_AAC-2 Duration : 26 min 0 s Bit rate : 163 kb/s Channel(s) : 2 channels Channel layout : L R Sampling rate : 48.0 kHz Frame rate : 46.875 FPS (1024 SPF) Compression mode : Lossy Delay relative to video : -21 ms Stream size : 30.4 MiB (7%) Title : StudioBand Language : Russian Default : Yes Forced : No
[+] Скриншоты
Спасибо VLDeshka за серии с 1 по 7. 21.03.2024 обновлено. 25-27 серия. 28 серия выйдет не раньше 01.04.2024. Приятного просмотра.

Всего файлов в раздаче: 27 
[KORSARS]_Sousou.no.Frieren.[S01E01].WEBRip.1080p.StudioBand.mkv448.43 MB
[KORSARS]_Sousou.no.Frieren.[S01E02].WEBRip.1080p.StudioBand.mkv447.96 MB
[KORSARS]_Sousou.no.Frieren.[S01E03].WEBRip.1080p.StudioBand.mkv420.59 MB
[KORSARS]_Sousou.no.Frieren.[S01E04].WEBRip.1080p.StudioBand.mkv447.97 MB
[KORSARS]_Sousou.no.Frieren.[S01E05].WEBRip.1080p.StudioBand.mkv422.90 MB
[KORSARS]_Sousou.no.Frieren.[S01E06].WEBRip.1080p.StudioBand.mkv422.77 MB
[KORSARS]_Sousou.no.Frieren.[S01E07].WEBRip.1080p.StudioBand.mkv450.97 MB
[KORSARS]_Sousou.no.Frieren.[S01E08].WEBRip.1080p.StudioBand.mkv418.34 MB
[KORSARS]_Sousou.no.Frieren.[S01E09].WEBRip.1080p.StudioBand.mkv414.76 MB
[KORSARS]_Sousou.no.Frieren.[S01E10].WEBRip.1080p.StudioBand.mkv416.98 MB
Показать все файлы

Похожие раздачи по запросу - Провожающая
2024-04-09 magnet Провожающая в последний путь Фрирен / Sousou no Frieren [S01] (2023) WEBRip 1080p от KORSARS | D | StudioBand 11.35 GB ↑ 0 ↓ 0
2024-04-09 magnet Провожающая в последний путь Фрирен / Sousou no Frieren [S01] (2023) WEBRip-HEVC 1080p by VLDeshka | D, L | StudioBand, DreamCast 13.08 GB ↑ 1 ↓ 0
2024-03-23 magnet Провожающая в последний путь Фрирен / Sousou no Frieren [S01] (2023) WEBRip-HEVC 1080p by VLDeshka | D, L | StudioBand, DreamCast 1К13.03 GB ↑ 0 ↓ 0
2024-03-20 magnet Провожающая в последний путь Фрирен / Sousou no Frieren [01x01-27 из 28] (2023) WEBRip-HEVC 1080p by VLDeshka | D, L | StudioBand, DreamCast 12.45 GB ↑ 0 ↓ 0
2024-03-10 magnet Провожающая в последний путь Фрирен / Sousou no Frieren [01x01-26 из 28] (2023) WEBRip-HEVC 1080p by VLDeshka | D, L | StudioBand, DreamCast 12.04 GB ↑ 0 ↓ 0

Комментарии

94Persikk94
спасибо, ждем последнюю


Зарегистрируйтесь чтобы добавить комментарий
Торрент клиент
byTorrent - программа для загрузки торрент-файлов.

Скачать byTorrent.exe (1,5 МБ)

Скачать byTorrent.zip (0,6 МБ)

Поддержи torrent.by
российских рублей
(300 российских рублей это 4$)

Обратная связь rss

End game ©