↑↓torrent.by
Поиск
Логин:  Регистрация
Пароль:

Kingdom Come - In Your Face (1989) FLAC

download Скачать торрент-файл   magnet Магнитная ссылка Размер: 316.18 MB Добавлен: 2024-03-24 17:00
Пиры будут получены из сети DHT
Последний сидер был замечен сегодня в 09:12
Исполнитель: Kingdom Come Название: In Your Face Издатель: Universal Music 839 192-9 Источник: Диск из личной коллекции Год: 1989 Жанр: Hard-Rock Страна: США Кодек: FLAC Битрейт аудио: Lossless Формат: image+.cue+.log Продолжительность: 00:44:54 Рок-Энциклопедия
[+] Трек-лист01. Do You Like It 02. Who Do You Love 03. The Wind 04. Gotta Go (Can’t Wage A War) 05. Highway 6 06. Perfect 'O' 07. Just Like A Wild Rose 08. Overrated 09. Mean Dirty Joe 10. Stargazer
[+] Отчёт ЕАСExact Audio Copy V1.6 from 23. October 2020 Отчёт EAC об извлечении, выполненном 20. февраля 2024, 22:48 KINGDOM COME / "In Your Face" Дисковод: ASUS SBW-06C1S-U Adapter: 0 ID: 0 Режим чтения : Достоверность Использование точного потока : Да Отключение кэша аудио : Да Использование указателей C2 : Нет Коррекция смещения при чтении : 48 Способность читать области Lead-in и Lead-out : Нет Заполнение пропущенных сэмплов тишиной : Да Удаление блоков с тишиной в начале и конце : Нет При вычислениях CRC использовались нулевые сэмплы : Да Интерфейс : Установленный внешний ASPI-интерфейс Выходной формат : Пользовательский кодировщик Выбранный битрейт : 1024 kBit/s Качество : Высокий Добавление ID3-тега : Нет Утилита сжатия : C:Program Files (x86)Exact Audio CopyFlacflac.exe Дополнительные параметры : -8 -V -T "TITLE=%title%" -T "ARTIST=%artist%" -T "ALBUMARTIST=%albumartist%" -T "ALBUM=%albumtitle%" -T "DATE=%year%" -T "TRACKNUMBER=%tracknr%" -T "TRACKTOTAL=%numtracks%" -T "GENRE=%genre%" -T "COMMENT=%comment%" -T "PERFORMER=%albuminterpret%" -T "COMPOSER=%composer%" %source% -o %dest% TOC извлечённого CD Трек | Старт | Длительность | Начальный сектор | Конечный сектор --------------------------------------------------------------------- 1 | 0:00.32 | 3:39.60 | 32 | 16516 2 | 3:40.17 | 4:13.65 | 16517 | 35556 3 | 7:54.07 | 5:00.48 | 35557 | 58104 4 | 12:54.55 | 4:25.17 | 58105 | 77996 5 | 17:19.72 | 5:51.13 | 77997 | 104334 6 | 23:11.10 | 3:46.10 | 104335 | 121294 7 | 26:57.20 | 4:31.50 | 121295 | 141669 8 | 31:28.70 | 4:03.12 | 141670 | 159906 9 | 35:32.07 | 4:08.55 | 159907 | 178561 10 | 39:40.62 | 5:13.73 | 178562 | 202109 Характеристики диапазона извлечения и сообщения об ошибках Выбранный диапазон Имя файла D:RazdachiFilesKingdom Come Kingdom Come - 1989 - In Your Face KINGDOM COME - ''In Your Face''.wav Пиковый уровень 100.0 % Скорость извлечения 6.0 X Качество диапазона 100.0 % CRC теста 8C0668F8 CRC копии 8C0668F8 Копирование... OK Ошибок не произошло AccurateRip: сводка Трек 1 точность не определена (достоверность 116) , AccurateRip вернул (AR v2) Трек 2 точность не определена (достоверность 115) , AccurateRip вернул (AR v2) Трек 3 точность не определена (достоверность 114) , AccurateRip вернул (AR v2) Трек 4 точность не определена (достоверность 116) , AccurateRip вернул (AR v2) Трек 5 точность не определена (достоверность 115) , AccurateRip вернул (AR v2) Трек 6 точность не определена (достоверность 114) , AccurateRip вернул (AR v2) Трек 7 точность не определена (достоверность 115) , AccurateRip вернул (AR v2) Трек 8 точность не определена (достоверность 115) , AccurateRip вернул (AR v2) Трек 9 точность не определена (достоверность 115) , AccurateRip вернул (AR v2) Трек 10 точность не определена (достоверность 115) , AccurateRip вернул (AR v2) Ни один трек не прошёл проверки на точность В вашей базе может быть иной вариант штамповки диска Конец отчёта ---- CUETools DB Plugin V2.1.6 found Submit result: OleK8A15v9hU2Dd8m4u_1pdzaWY- has been confirmed Track | CTDB Status 1 | (400/409) Accurately ripped 2 | (400/409) Accurately ripped 3 | (399/409) Accurately ripped 4 | (397/409) Accurately ripped 5 | (398/409) Accurately ripped 6 | (398/409) Accurately ripped 7 | (400/409) Accurately ripped 8 | (400/409) Accurately ripped 9 | (400/409) Accurately ripped 10 | (397/409) Accurately ripped ==== Контрольная сумма отчёта A84037B3FA14CFC6192C506EABC6B69A4182A18B806284227FD19DE3DB250DE7 ====
Дополнительная информация: Kingdom Come (из английского текста молитвы «Отче наш»: «Да придет Царствие Твое» — «Thy Kingdom come») — американская рок-группа, созданная рок-музыкантом немецкого происхождения Ленни Вольфом в 1987 году в Лос-Анджелесе. Время раздачи: В дневное время.

Всего файлов в раздаче: 10 
KINGDOM COME - ''In Your Face''.cue1.49 kB
KINGDOM COME - ''In Your Face''.flac292.32 MB
KINGDOM COME - ''In Your Face''.log8.74 kB
Scans\Scan 01.jpg2.67 MB
Scans\Scan 02.jpg4.87 MB
Scans\Scan 03.jpg1.41 MB
Scans\Scan 04.jpg3.88 MB
Scans\Scan 05.jpg1.72 MB
Scans\Scan 06.jpg6.52 MB
Scans\Scan 07.jpg2.78 MB

Похожие раздачи по запросу - Kingdom
Вчера magnet Королевство зверей / Le règne animal / The Animal Kingdom (2023) BDRip 1080p от Generalfilm | D 9.46 GB ↑ 0 ↓ 4
2024-04-07 magnet Королевство зверей / Le regne animal / The Animal Kingdom (2023) BDRip-HEVC 1080p от AllHevc 2.58 GB ↑ 0 ↓ 0
2024-04-06 magnet Королевство зверей / Le règne animal / The Animal Kingdom (2023) BDRip 720p от селезень | D, P2 6.15 GB ↑ 0 ↓ 0
2024-04-06 magnet Королевство зверей / Le règne animal / The Animal Kingdom (2023) BDRemux 1080p от селезень | D, P2 30.93 GB ↑ 0 ↓ 1
2024-04-05 magnet Королевство зверей / Le règne animal / The Animal Kingdom (2023) BDRip от MegaPeer | D 1.46 GB ↑ 0 ↓ 1
2024-04-05 magnet Королевство зверей / Le règne animal / The Animal Kingdom (2023) HDRip-AVC от DoMiNo & селезень | D 2.10 GB ↑ 0 ↓ 0
2024-04-05 magnet Королевство зверей / Le règne animal / The Animal Kingdom (2023) BDRip 1080p от селезень | D, P2 11.36 GB ↑ 0 ↓ 0

Комментарии


Зарегистрируйтесь чтобы добавить комментарий
Торрент клиент
byTorrent - программа для загрузки торрент-файлов.

Скачать byTorrent.exe (1,5 МБ)

Скачать byTorrent.zip (0,6 МБ)

Поддержи torrent.by
российских рублей
(300 российских рублей это 4$)

Обратная связь rss

End game ©