↑↓torrent.by
Поиск
Логин:  Регистрация
Пароль:

Красный 5 [01-06 из 08] (2024) WEBRip-AVC от Generalfilm | КПК

download Скачать торрент-файл   magnet Магнитная ссылка Размер: 1.28 GB Добавлен: 2024-03-24 17:00
Пиры будут получены из сети DHT
Последний сидер был замечен 2024-03-24 22:41
Информация о фильме Оригинальное название: Красный 5 Год выпуска: 2024 Жанр: Комедия, боевик Режиссер: Евгений Шелякин В ролях: Денис Шведов, Гоша Куценко, Роман Курцын, Надежда Жарычева, Севастьян Бугаев, Мария Лисовая, Ян Цапник, Егор Дружинин, Полина Сыркина, Артур Мухамадияров, Сергей Кореньков, Маргарита Шабардыгина, Мария Ремер, Илья Крутояров, Евгения Глотова, Ксения Золотухина, Дмитрий Муляр, Виктор Конухин, Татьяна Храмова (II), Кирилл Фролов, Юлия Зимина, Александр Яцко, Леонид Тимцуник, Игорь Хрипунов, Леонид Бичевин, Настасья Самбурская, Виталия Корниенко О сериале: Агент спецслужб Бекешев, который в одиночку может нейтрализовать любого противника, однажды, несмотря на весь свой опыт, проваливает задание и его отправляют в отставку. Жить на «гражданке» Бекешев не умеет: он страдает крайней подозрительностью, не доверяет соседям и превращает свою квартиру в самодельный штаб. Но внезапно его навыки оказываются вновь нужны: бывший начальник Бекешева Анатолич просит поймать сбежавших из полярной тюрьмы преступников с суперспособностями. В напарники Бекешеву приставляют хакера по кличке Бабуля – экстравагантного, но высококлассного специалиста. Теперь шпионскому трио предстоит спасать родину от настоящих суперзлодеев. Страна: Россия Студия: Кинокомпания "ТВ-3", "PREMIER", "1-2-3 Production" Продолжительность: 6 x ~ 00:48:00 Перевод: Не требуется Файл Формат: MP4 Качество: WEBRip-AVC Видео: MPEG-4 AVC (x264), 640x272, ~ 500 kbps, 25.000 fps Аудио: AAC LC, 48.0 KHz, 2 ch, 128 Kbps Субтитры: Нет
[+] Скриншоты
[+] MIComplete name : D:киноKrasnyi.5.S01.2024.WEBRip-AVC.KPK.GFKrasnyi.5.s01e02.2024.WEBRip-AVC.KPK.GF.mp4 Format : MPEG-4 Codec ID : M4V (isom/iso2/avc1) File size : 218 MiB Duration : 48mn 0s Overall bit rate mode : Variable Overall bit rate : 634 Kbps Writing application : Lavf53.19.0 Video ID : 1 Format : AVC Format/Info : Advanced Video Codec Format profile : High@L4.1 Format settings, CABAC : Yes Format settings, ReFrames : 8 frames Codec ID : avc1 Codec ID/Info : Advanced Video Coding Duration : 48mn 0s Bit rate : 500 Kbps Width : 640 pixels Height : 272 pixels Display aspect ratio : 2.35:1 Frame rate mode : Constant Frame rate : 25.000 fps Color space : YUV Chroma subsampling : 4:2:0 Bit depth : 8 bits Scan type : Progressive Bits/(Pixel*Frame) : 0.115 Stream size : 172 MiB (79%) Writing library : x264 core 146 r2538 121396c Encoding settings : cabac=1 / ref=8 / deblock=1:-1:-1 / analyse=0x3:0x133 / me=umh / subme=10 / psy=1 / psy_rd=1.00:0.00 / mixed_ref=1 / me_range=24 / chroma_me=1 / trellis=2 / 8x8dct=1 / cqm=0 / deadzone=21,11 / fast_pskip=1 / chroma_qp_offset=-2 / threads=3 / lookahead_threads=1 / sliced_threads=0 / nr=0 / decimate=1 / interlaced=0 / bluray_compat=0 / constrained_intra=0 / bframes=8 / b_pyramid=2 / b_adapt=2 / b_bias=0 / direct=3 / weightb=1 / open_gop=0 / weightp=2 / keyint=250 / keyint_min=126 / scenecut=40 / intra_refresh=0 / rc_lookahead=40 / rc=2pass / mbtree=1 / bitrate=500 / ratetol=1.0 / qcomp=0.60 / qpmin=0 / qpmax=69 / qpstep=4 / cplxblur=20.0 / qblur=0.5 / ip_ratio=1.40 / aq=1:1.00 Menus : 3 Audio ID : 2 Format : AAC Format/Info : Advanced Audio Codec Format profile : LC Codec ID : 40 Duration : 48mn 0s Bit rate mode : Variable Bit rate : 128 Kbps Channel(s) : 2 channels Channel positions : Front: L R Sampling rate : 48.0 KHz Frame rate : 46.875 fps (1024 spf) Compression mode : Lossy Stream size : 43.9 MiB (20%) Default : Yes Alternate group : 1 Menus : 3
Релиз от:

Всего файлов в раздаче: 6 
Krasnyi.5.s01e01.2024.WEBRip-AVC.KPK.GF.mp4215.14 MB
Krasnyi.5.s01e02.2024.WEBRip-AVC.KPK.GF.mp4217.72 MB
Krasnyi.5.s01e03.2024.WEBRip-AVC.KPK.GF.mp4229.86 MB
Krasnyi.5.s01e04.2024.WEBRip-AVC.KPK.GF.mp4225.75 MB
Krasnyi.5.s01e05.2024.WEBRip-AVC.KPK.GF.mp4209.63 MB
Krasnyi.5.s01e06.2024.WEBRip-AVC.KPK.GF.mp4208.71 MB

Похожие раздачи по запросу - Красный
2024-04-07 magnet Красный 5 [01-08 из 08] (2024) WEBRip 720p от Files-х 8.43 GB ↑ 0 ↓ 0
2024-04-06 magnet Красный 5 [S01] (2024) WEBRip-AVC от Generalfilm | КПК 1.70 GB ↑ 0 ↓ 0
2024-04-05 magnet Красный 5 [S01] (2024) WEBRip 1080p 12.40 GB ↑ 0 ↓ 0
2024-04-05 magnet Красный 5 [01-08 из 08] (2024) WEBRip от Files-х 4.77 GB ↑ 0 ↓ 0
2024-04-05 magnet Красный 5 [S01] (2024) WEBRip-AVC от Files-х 1К4.82 GB ↑ 0 ↓ 0
2024-03-31 magnet Красный 5 [01-07 из 08] (2024) WEBRip-AVC от Generalfilm | КПК 1.48 GB ↑ 0 ↓ 0
2024-03-29 magnet Красный 5 [01-07 из 08] (2024) WEBRip 720p от Files-х 7.32 GB ↑ 0 ↓ 0

Комментарии


Зарегистрируйтесь чтобы добавить комментарий
Торрент клиент
byTorrent - программа для загрузки торрент-файлов.

Скачать byTorrent.exe (1,5 МБ)

Скачать byTorrent.zip (0,6 МБ)

Поддержи torrent.by
российских рублей
(300 российских рублей это 4$)

Обратная связь rss

End game ©