↑↓torrent.by
Поиск
Логин:  Регистрация
Пароль:

Задача трёх тел / 3 Body Problem [S01] (2024) WEB-DL 720p | HDrezka Studio

download Скачать торрент-файл   magnet Магнитная ссылка Размер: 9.42 GB Раздают: 1 Качают: 2 Добавлен: 2024-03-24 17:00
Пиры будут получены из сети DHT
Последний сидер был замечен сегодня в 07:03
Информация о фильме Название: Задача трёх тел Оригинальное название: 3 Body Problem Год выхода: 2024 Жанр: фантастика, фэнтези, драма, детектив Режиссер: Минки Спиро, Джереми Подесва, Дерек Цан, Эндрю Стэнтон В ролях: Джесс Хонг, Лиам Каннингэм, Эйса Гонсалес, Джован Адепо, Джон Брэдли, Алекс Шарп, Бенедикт Вонг, Саамер Усмани, Розалинд Чао, Цай Чинь, Джонатан Прайс, Авиталь Львова, Бен Шнетцер, Эдмунд Кингсли, Хосе Пальма О фильме: Ученые по всему миру накладывают на себя руки, сталкиваясь с нарушениями законов физики в их экспериментах. Все это как-то связано с VR-игрой «Три тела», тайной научной ячейкой и инопланетянами. Как именно — разбираются детектив Да Ши (Бенедикт Вонг) и группа физиков — выпускников Оксфорда (Джесс Хун, Джован Адепо, Эйса Гонсалес, Джон Брэдли). Да, еще одна экранизация культовой трилогии Лю Цысиня, но не анимационная, не китайская и не линейная. Взявшиеся за сай-фай Дэвид Бениофф и Д. Б. Уайсс, отдыхавшие со времен «Игры престолов», не только перенесли часть событий в Лондон и другие столицы, а функции главного героя поделили между пятью, но еще использовали сюжеты всего троекнижия разом. Критика в восхищении, хотя местами непростой сюжет романа стал более запутанным. Страна: Великобритания, США, Китай Продолжительность: ~00:50:00 серия Перевод: Профессиональный (многоголосый закадровый) HDrezka Studio Файл Кодек: MKV Качество: WEB-DL 720p Видео: AVC, 1280x720 (16:9),2082 kbps (0.094 b/px), 23.976 fps Звук: Аудио #1: AC3, 192 kbps (CBR), 48.0 KHz , 2 ch, Russian - HDRezka Studio Аудио #2: E-AC-3, 768 kbps (CBR), 48.0 KHz, 6 ch, English Субтитры: Русские (Forced , Full), английские РЕКЛАМЫ НЕТ
[+] MediaInfoОбщее Уникальный идентификатор : 228831681572016736537216260369268632138 (0xAC2760F77D882DD2EE0B922DD6046A4A) Полное имя : E:СЕРИАЛЫ3.Body.Problem.S01.720p3.Body.Problem.S01E01.720p.mkv Формат : Matroska Версия формата : Version 4 Размер файла : 1,29 Гбайт Продолжительность : 1 ч. 0 м. Общий поток : 3 045 Кбит/сек Частота кадров : 23,976 кадра/сек Дата кодирования : 2024-03-22 05:07:09 UTC Программа кодирования : mkvmerge v45.0.0 ('Heaven in Pennies') 64-bit Библиотека кодирования : libebml v1.3.10 + libmatroska v1.5.2 / Lavf60.4.100 MOVIE/ENCODER : Lavf59.27.100 Видео Идентификатор : 1 Формат : AVC Формат/Информация : Advanced Video Codec Профиль формата : High@L5.1 Настройки формата : CABAC / 4 Ref Frames Параметр CABAC формата : Да Параметр RefFrames формата : 4 кадра Идентификатор кодека : V_MPEG4/ISO/AVC Продолжительность : 1 ч. 0 м. Битрейт : 2 082 Кбит/сек Номинальный битрейт : 2 200 Кбит/сек Ширина : 1 280 пикселей Высота : 720 пикселей Соотношение сторон : 16:9 Режим частоты кадров : Постоянный Частота кадров : 23,976 (24000/1001) кадра/сек Цветовое пространство : YUV Субдискретизация насыщенности : 4:2:0 Битовая глубина : 8 бит Тип развёртки : Прогрессивная Бит/(Пиксели*Кадры) : 0.094 Размер потока : 902 Мбайт (68%) Библиотека кодирования : x264 core 164 r3106 eaa68fa Настройки программы : cabac=1 / ref=3 / deblock=1:0:0 / analyse=0x3:0x113 / me=hex / subme=7 / psy=1 / psy_rd=1.00:0.00 / mixed_ref=1 / me_range=16 / chroma_me=1 / trellis=1 / 8x8dct=1 / cqm=0 / deadzone=21,11 / fast_pskip=1 / chroma_qp_offset=-2 / threads=22 / lookahead_threads=3 / sliced_threads=0 / nr=0 / decimate=1 / interlaced=0 / bluray_compat=0 / constrained_intra=0 / bframes=3 / b_pyramid=2 / b_adapt=1 / b_bias=0 / direct=1 / weightb=1 / open_gop=0 / weightp=2 / keyint=250 / keyint_min=23 / scenecut=40 / intra_refresh=0 / rc_lookahead=40 / rc=abr / mbtree=1 / bitrate=2200 / ratetol=1.0 / qcomp=0.60 / qpmin=0 / qpmax=69 / qpstep=4 / ip_ratio=1.40 / aq=1:1.00 Default : Да Forced : Нет Цветовой диапазон : Limited Аудио #1 Идентификатор : 2 Формат : AC-3 Формат/Информация : Audio Coding 3 Коммерческое название : Dolby Digital Идентификатор кодека : A_AC3 Продолжительность : 1 ч. 0 м. Вид битрейта : Постоянный Битрейт : 192 Кбит/сек Каналы : 2 канала Channel layout : L R Частота : 48,0 КГц Частота кадров : 31,250 кадров/сек (1536 SPF) Метод сжатия : С потерями Размер потока : 83,2 Мбайт (6%) Заголовок : HDR Язык : Russian Service kind : Complete Main Default : Да Forced : Нет Аудио #2 Идентификатор : 3 Формат : E-AC-3 JOC Формат/Информация : Enhanced AC-3 with Joint Object Coding Коммерческое название : Dolby Digital Plus with Dolby Atmos Идентификатор кодека : A_EAC3 Продолжительность : 1 ч. 0 м. Вид битрейта : Постоянный Битрейт : 768 Кбит/сек Каналы : 6 каналов Channel layout : L R C LFE Ls Rs Частота : 48,0 КГц Частота кадров : 31,250 кадров/сек (1536 SPF) Метод сжатия : С потерями Размер потока : 333 Мбайт (25%) Язык : English Service kind : Complete Main Default : Нет Forced : Нет Complexity index : 16 Number of dynamic objects : 15 Bed channel count : 1 канал Bed channel configuration : LFE Текст #1 Идентификатор : 4 Формат : UTF-8 Идентификатор кодека : S_TEXT/UTF8 Идентификатор кодека/Информация : UTF-8 Plain Text Продолжительность : 55 м. 16 с. Битрейт : 4 бит/сек Частота кадров : 0,010 кадр/сек Count of elements : 33 Размер потока : 1,71 Кбайт (0%) Заголовок : fors Язык : Russian Default : Да Forced : Нет Текст #2 Идентификатор : 5 Формат : UTF-8 Идентификатор кодека : S_TEXT/UTF8 Идентификатор кодека/Информация : UTF-8 Plain Text Продолжительность : 58 м. 18 с. Битрейт : 64 бит/сек Частота кадров : 0,163 кадр/сек Count of elements : 570 Размер потока : 27,7 Кбайт (0%) Заголовок : Russian Язык : Russian Default : Нет Forced : Нет Текст #3 Идентификатор : 6 Формат : UTF-8 Идентификатор кодека : S_TEXT/UTF8 Идентификатор кодека/Информация : UTF-8 Plain Text Продолжительность : 54 м. 37 с. Битрейт : 13 бит/сек Частота кадров : 0,055 кадр/сек Count of elements : 180 Размер потока : 5,21 Кбайт (0%) Заголовок : English Язык : English Default : Нет Forced : Нет Текст #4 Идентификатор : 7 Формат : UTF-8 Идентификатор кодека : S_TEXT/UTF8 Идентификатор кодека/Информация : UTF-8 Plain Text Продолжительность : 58 м. 23 с. Битрейт : 58 бит/сек Частота кадров : 0,239 кадр/сек Count of elements : 839 Размер потока : 25,2 Кбайт (0%) Заголовок : English Язык : English Default : Нет Forced : Нет
[+] Скриншоты

Всего файлов в раздаче: 8 
3.Body.Problem.S01E01.720p.mkv1.29 GB
3.Body.Problem.S01E02.720p.mkv1.36 GB
3.Body.Problem.S01E03.720p.mkv1.13 GB
3.Body.Problem.S01E04.720p.mkv940.04 MB
3.Body.Problem.S01E05.720p.mkv1.23 GB
3.Body.Problem.S01E06.720p.mkv1.03 GB
3.Body.Problem.S01E07.720p.mkv1.25 GB
3.Body.Problem.S01E08.720p.mkv1.22 GB

Похожие раздачи по запросу - Задача
2024-04-21 magnet Детектив на все руки. Задача со звёздочкой [S03] (2023) WEB-DLRip от Generalfilm | КПК 681.49 MB ↑ 0 ↓ 0
2024-04-15 magnet Детектив на все руки. Задача со звёздочкой [S03] (2023) WEB-DL 1080p от Files-x 6.64 GB ↑ 0 ↓ 0
2024-04-15 magnet Детектив на все руки. Задача со звёздочкой [S03] (2023) WEB-DLRip-AVC от Files-x 2.25 GB ↑ 0 ↓ 0
2024-04-14 magnet Детектив на все руки. Задача со звёздочкой [S03] (2023) WEB-DLRip от Files-x 2.24 GB ↑ 0 ↓ 0
2024-04-13 magnet Детектив на все руки. Задача со звёздочкой / Сезон: 3 / Серии: 1-4 из 4 [2023, детектив, WEBRip-AVC] от Aleksan55 2.23 GB ↑ 0 ↓ 0
2024-04-03 magnet Задача трёх тел / 3 Body Problem [S01] (2024) WEB-DL-HEVC 2160p | 4K | HDR | HDrezka Studio, LostFilm, TVShows, Red Head Sound 40.50 GB ↑ 0 ↓ 0
2024-04-03 magnet Задача трёх тел / 3 Body Problem [S01] (2024) WEB-DL 2160p | 4K | SDR | P 54.63 GB ↑ 0 ↓ 0

Комментарии

aliki_lohin
смотрел сериал и продолжение в виде аниме... надеюсь повесткой не сильно испортили данное произведение


Зарегистрируйтесь чтобы добавить комментарий
Торрент клиент
byTorrent - программа для загрузки торрент-файлов.

Скачать byTorrent.exe (1,5 МБ)

Скачать byTorrent.zip (0,6 МБ)

Поддержи torrent.by
российских рублей
(300 российских рублей это 4$)

Обратная связь rss

End game ©