↑↓torrent.by
Поиск
Логин:  Регистрация
Пароль:

Зловещий свет / Prey for the Devil (2022) HDRip-AVC от ExKinoRay | D

download Скачать торрент-файл   magnet Магнитная ссылка Размер: 744.05 MB Добавлен: 2024-03-25 05:00
Пиры будут получены из сети DHT
Последний сидер был замечен 2024-03-25 05:00
Информация о фильме Название: Зловещий свет Оригинальное название: Prey for the Devil Год выхода: 2022 Жанр: Ужасы Режиссер: Даниэль Штамм В ролях: Жаклин Байерс, Вирджиния Мэдсен, Кристиан Наварро, Колин Сэлмон, Николас Ральф, Бен Кросс, Лиза Пэлфри, Дебора Жечева, Пози Тейлор, Дерек Морс О фильме: Когда сильно возросло число случаев одержимости, Ватикан стал открывать по всему миру школы экзорцизма, в которых не только учат изгонять дьявола, но и наблюдают пациентов — на самом деле человеком завладели злые силы или он болен психически. Молодая монахиня Энн ухаживает за такими людьми и очень хочет обучаться, так как много лет назад её мать убил вселившийся в неё демон. Несмотря на протесты старшей монахини, девушка получает разрешение посещать лекции опытного экзорциста отца Куинна и даже проявляет себя на практических занятиях, но пока не догадывается, с насколько хитрым демоном ей вскоре предстоит сразиться. Страна: США Студия: Confluence Productions, Gold Circle Films, Lionsgate Продолжительность: 01:33:09 Перевод: Дубляж Файл Формат: MKV Качество: HDRip-AVC Видео: MPEG-4 AVC, 754x316, 1033 Кбит/с Аудио: AAC-HE, 2 ch, 84 Кбит/с Субтитры: Русские (forced)
[+] MIОбщее Уникальный идентификатор : 249913874369253345836099348520635426837 (0xBC03A952987362AD0041CCE6AE9F6815) Полное имя : D:MOVIESPrey.For.The.Devil.2022.HDRip-AVC.ExKinoRay.mkv Формат : Matroska Версия формата : Version 4 Размер файла : 744 Мбайт Продолжительность : 1 ч. 33 м. Общий поток : 1 117 Кбит/сек Частота кадров : 23,976 кадра/сек Дата кодирования : 2024-03-24 13:33:58 UTC Программа кодирования : mkvmerge v46.0.0 ('No Deeper Escape') 64-bit Библиотека кодирования : libebml v1.3.10 + libmatroska v1.5.2 Видео Идентификатор : 1 Формат : AVC Формат/Информация : Advanced Video Codec Профиль формата : High@L4.1 Настройки формата : CABAC / 11 Ref Frames Параметр CABAC формата : Да Параметр RefFrames формата : 11 кадров Идентификатор кодека : V_MPEG4/ISO/AVC Продолжительность : 1 ч. 33 м. Битрейт : 1 033 Кбит/сек Ширина : 754 пикселя Высота : 316 пикселей Соотношение сторон : 2,40:1 Режим частоты кадров : Постоянный Частота кадров : 23,976 (24000/1001) кадра/сек Цветовое пространство : YUV Субдискретизация насыщенности : 4:2:0 Битовая глубина : 8 бит Тип развёртки : Прогрессивная Бит/(Пиксели*Кадры) : 0.181 Размер потока : 687 Мбайт (92%) Библиотека кодирования : x264 core 164 r3107 a8b68eb Настройки программы : cabac=1 / ref=11 / deblock=1:-2:-2 / analyse=0x3:0x133 / me=umh / subme=10 / psy=1 / psy_rd=1.05:0.12 / mixed_ref=1 / me_range=32 / chroma_me=1 / trellis=2 / 8x8dct=1 / cqm=0 / deadzone=21,11 / fast_pskip=0 / chroma_qp_offset=-3 / threads=6 / lookahead_threads=1 / sliced_threads=0 / nr=0 / decimate=0 / interlaced=0 / bluray_compat=0 / constrained_intra=0 / bframes=11 / b_pyramid=2 / b_adapt=2 / b_bias=0 / direct=3 / weightb=1 / open_gop=0 / weightp=2 / keyint=240 / keyint_min=23 / scenecut=40 / intra_refresh=0 / rc=2pass / mbtree=0 / bitrate=1033 / ratetol=1.0 / qcomp=0.60 / qpmin=0 / qpmax=69 / qpstep=4 / cplxblur=20.0 / qblur=0.5 / ip_ratio=1.40 / pb_ratio=1.30 / aq=3:1.00 Язык : English Default : Да Forced : Нет Цветовой диапазон : Limited Основные цвета : BT.709 Характеристики трансфера : BT.709 Коэффициенты матрицы : BT.709 Аудио Идентификатор : 2 Формат : AAC LC SBR Формат/Информация : Advanced Audio Codec Low Complexity with Spectral Band Replication Коммерческое название : HE-AAC Настройки формата : Explicit Идентификатор кодека : A_AAC-2 Продолжительность : 1 ч. 33 м. Битрейт : 84,0 Кбит/сек Каналы : 2 канала Channel layout : L R Частота : 48,0 КГц Частота кадров : 23,438 кадра/сек (2048 SPF) Метод сжатия : С потерями Задержка видео : 31 мс. Размер потока : 56,0 Мбайт (8%) Язык : Russian Default : Да Forced : Нет Текст Идентификатор : 3 Формат : UTF-8 Идентификатор кодека : S_TEXT/UTF8 Идентификатор кодека/Информация : UTF-8 Plain Text Продолжительность : 37 м. 52 с. Битрейт : 3 бит/сек Частота кадров : 0,007 кадр/сек Count of elements : 16 Размер потока : 864 байт (0%) Заголовок : Forced Язык : Russian Default : Да Forced : Да Меню 00:00:00.000 : en:Глава 01 00:03:38.510 : en:Глава 02 00:11:02.996 : en:Глава 03 00:17:43.396 : en:Глава 04 00:23:15.728 : en:Глава 05 00:31:54.621 : en:Глава 06 00:35:29.127 : en:Глава 07 00:42:59.327 : en:Глава 08 00:47:39.523 : en:Глава 09 00:55:41.797 : en:Глава 10 00:59:15.051 : en:Глава 11 01:04:20.398 : en:Глава 12 01:07:03.353 : en:Глава 13 01:11:11.976 : en:Глава 14 01:20:41.086 : en:Глава 15 01:24:56.508 : en:Глава 16
[+] Скриншоты

Всего файлов в раздаче: 1 
Prey.For.The.Devil.2022.HDRip-AVC.ExKinoRay.mkv744.05 MB

Похожие раздачи по запросу - Зловещий
2024-03-24 magnet Зловещий свет / Prey for the Devil (2022) BDRip 1080p от DoMiNo & селезень | D 7.23 GB ↑ 0 ↓ 0
2024-03-24 magnet Зловещий свет / Prey for the Devil (2022) BDRip от MegaPeer | D 1.46 GB ↑ 0 ↓ 0
2024-03-23 magnet Зловещий свет / Prey for the Devil (2022) BDRip 720p от ExKinoRay | D, P 3.64 GB ↑ 0 ↓ 0
2024-03-23 magnet Зловещий свет / Prey for the Devil (2022) BDRemux 1080p | D, P 19.38 GB ↑ 0 ↓ 0

Комментарии


Зарегистрируйтесь чтобы добавить комментарий
Торрент клиент
byTorrent - программа для загрузки торрент-файлов.

Скачать byTorrent.exe (1,5 МБ)

Скачать byTorrent.zip (0,6 МБ)

Поддержи torrent.by
российских рублей
(300 российских рублей это 4$)

Обратная связь rss

End game ©