↑↓torrent.by
Поиск
Логин:  Регистрация
Пароль:

Shakira - Las Mujeres Ya No Lloran [24-bit Hi-Res] (2024) FLAC

download Скачать торрент-файл   magnet Магнитная ссылка Размер: 626.54 MB Добавлен: 2024-03-25 05:00
Пиры будут получены из сети DHT
Последний сидер был замечен 2024-04-05 03:42
Название: Las Mujeres Ya No Lloran Исполнитель: Shakira Год: 2024 Жанр: Electronic, Latin, Pop, Bachata, Reggaeton Издатель (лейбл): Sony Music Latin Продолжительность: 00:51:13 Формат/Кодек: FLAC Тип рипа: Tracks Битрейт аудио: Lossless Разрядность: 24 Bit/48 kHz
[+] Трек-лист 01. Puntería (00:03:02) 02. La Fuerte (00:02:45) 03. Tiempo Sin Verte (00:03:16) 04. Cohete (00:02:53) 05. (Entre Paréntesis) (00:02:49) 06. Cómo Dónde Y Cuándo (00:02:59) 07. Nassau (00:02:36) 08. Última (00:02:59) 09. Te Felicito (00:02:53) 10. Monotonía (00:02:42) 11. Shakira: Bzrp Music Sessions, Vol. 53 (00:03:37) 12. Tqg (00:03:19) 13. Acróstico (Milan Y Sasha) (00:02:52) 14. Copa Vacía (00:02:55) 15. El Jefe (00:02:51) 16. Bzrp Music Sessions, Vol. 53 (Tiësto Remix) (00:03:36) 17. Puntería (Vinyl Version) (00:03:09)
[+] DRM foobar2000 1.5.5 / Замер динамического диапазона (DR) 1.1.1 ------------------------------------------------------------------------------- Анализ: Bizarrap / Las Mujeres Ya No Lloran (1-2) Karol G / Las Mujeres Ya No Lloran (3) Shakira / Las Mujeres Ya No Lloran (4-17) -------------------------------------------------------------------------------- DR Пики RMS Продолжительность трека -------------------------------------------------------------------------------- DR5 -0.11 дБ -6.50 дБ 3:37 11-Shakira: Bzrp Music Sessions, Vol. 53 DR3 -2.00 дБ -6.93 дБ 3:36 16-Bzrp Music Sessions, Vol. 53 (Tiësto Remix) DR5 -0.55 дБ -7.38 дБ 3:19 12-Tqg DR5 -0.11 дБ -5.93 дБ 3:02 01-Puntería DR5 -0.11 дБ -6.83 дБ 2:45 02-La Fuerte DR5 -0.10 дБ -6.85 дБ 3:16 03-Tiempo Sin Verte DR5 -0.11 дБ -6.10 дБ 2:53 04-Cohete DR7 -0.08 дБ -7.85 дБ 2:49 05-(Entre Paréntesis) DR5 -0.08 дБ -8.33 дБ 2:59 06-Cómo Dónde Y Cuándo DR5 -0.11 дБ -7.63 дБ 2:36 07-Nassau DR9 -0.10 дБ -11.10 дБ 2:59 08-Última DR6 -1.09 дБ -9.04 дБ 2:53 09-Te Felicito DR5 -0.21 дБ -7.68 дБ 2:42 10-Monotonía DR6 -1.01 дБ -9.03 дБ 2:52 13-Acróstico (Milan Y Sasha) DR5 -0.10 дБ -7.21 дБ 2:55 14-Copa Vacía DR7 -0.81 дБ -8.61 дБ 2:51 15-El Jefe DR5 -0.15 дБ -6.40 дБ 3:09 17-Puntería (Vinyl Version) -------------------------------------------------------------------------------- Количество треков: 17 Реальные значения DR: DR6 Частота: 48000 Гц Каналов: 2 Разрядность: 24 Битрейт: 1818 кбит/с Кодек: FLAC ================================================================================
Время раздачи: 24/7 (минимум до появления первых 3-5 скачавших, на раздачи не возвращаюсь) Первое правило участника файлообмена: "Скачал сам - дай скачать другому!"

Всего файлов в раздаче: 18 
01. Puntería.flac39.28 MB
02. La Fuerte.flac34.41 MB
03. Tiempo Sin Verte.flac41.14 MB
04. Cohete.flac36.24 MB
05. (Entre Paréntesis).flac35.95 MB
06. Cómo Dónde Y Cuándo.flac35.40 MB
07. Nassau.flac32.37 MB
08. Última.flac30.29 MB
09. Te Felicito.flac34.73 MB
10. Monotonía.flac32.28 MB
Показать все файлы

Похожие раздачи по запросу - Shakira
2024-03-25 magnet Shakira - Las Mujeres Ya No Lloran (2024) FLAC 330.96 MB ↑ 0 ↓ 0
2024-03-24 magnet Shakira - Las Mujeres Ya No Lloran (2024) MP3 119.71 MB ↑ 0 ↓ 0

Комментарии


Зарегистрируйтесь чтобы добавить комментарий
Торрент клиент
byTorrent - программа для загрузки торрент-файлов.

Скачать byTorrent.exe (1,5 МБ)

Скачать byTorrent.zip (0,6 МБ)

Поддержи torrent.by
российских рублей
(300 российских рублей это 4$)

Обратная связь rss

End game ©