↑↓torrent.by
Поиск
Логин:  Регистрация
Пароль:

Аргайл: Супершпион / Argylle (2024) WEB-DL 2160p | 4K | HDR | Dolby Vision Profile 8 | D, P, P2

download Скачать торрент-файл   magnet Магнитная ссылка Размер: 27.37 GB Раздают: 0 Качают: 3 Добавлен: 2024-03-25 05:00
Пиры будут получены из сети DHT
Последний сидер был замечен вчера в 00:11
Название: Аргайл: Супершпион Оригинальное название: Argylle Год выхода: 2024 Производство: Великобритания, США / Apple Original Films, Marv Films, Cloudy Productions Жанр: Боевик, комедия, криминал, экранизация Перевод: Профессиональный дублированный, профессиональный многоголосый, профессиональный двухголосый Продолжительность: 02:19:00 Режиссёр: Мэттью Вон В ролях: София Бутелла, Генри Кавилл, Дуа Липа, Брайс Даллас Ховард, Сэм Рокуэлл, Джон Сина, Сэмюэл Л. Джексон, Брайан Крэнстон, Кэтрин О`Хара, Ариана ДеБос Описание: Элли Конвей, замкнутая писательница шпионских романов, редко покидает свой дом. Но однажды она попадает в реальный мир шпионажа, когда сюжеты её книг становятся слишком похожи на настоящие дела зловещего подпольного синдиката. Формат: MKV Качество: WEB-DL 2160p Видео: MPEG-H/HEVC, 3840x1604, 24.2 Mb/s, 0.164 бит/(Пиксели*Кадры), 23.976 fps Аудио 1: AC-3, 6 ch, 48.0 kHz, 448 Kbps - Русский дублированный (Bravo Records Georgia) Аудио 2: E-AC3, 6 ch, 48.0 kHz, 768 Kbps - Русский MVO (Jaskier) Аудио 3: E-AC3, 6 ch, 48.0 kHz, 768 Kbps - Русский MVO (TVShows) Аудио 4: AC-3, 2 ch, 48.0 kHz, 192 Kbps - Русский MVO (Red Head Sound) Аудио 5: AC-3, 6 ch, 48.0 kHz, 640 Kbps - Русский DVO (ViruseProject) Аудио 6: AC-3, 6 ch, 48.0 kHz, 448 Kbps - Украинский дублированный (LeDoyen) Аудио 7: E-AC3+Atmos, 6 ch, 48.0 kHz, 768 Kbps - Английский Субтитры: Русские (Forced, Full, SDH), английские (Full, SDH), украинские (Forced, Full, SDH)
[+] MediainfoGeneral Unique ID : 57355207977775931227424694290218950635 (0x2B2636148D42FE97A2E59EC68F2F1FEB) Complete name : E:DownloadArgylle (2024) WEB-DL 2160p HDR-DV.mkv Format : Matroska Format version : Version 4 File size : 27.4 GiB Duration : 2 h 18 min Overall bit rate : 28.3 Mb/s Frame rate : 23.976 FPS Movie name : Аргайл: Супершпион / Argylle (2024) Encoded date : 2024-03-24 08:26:45 UTC Writing application : mkvmerge v68.0.0 ('The Curtain') 64-bit Writing library : libebml v1.4.2 + libmatroska v1.6.4 Cover : Yes Attachments : Cover.jpg Video ID : 1 Format : HEVC Format/Info : High Efficiency Video Coding Format profile : Main 10@L5@High HDR format : Dolby Vision, Version 1.0, Profile 8.1, dvhe.08.06, BL+RPU, HDR10 compatible / SMPTE ST 2094 App 4, Version HDR10+ Profile B, HDR10+ Profile B compatible Codec ID : V_MPEGH/ISO/HEVC Duration : 2 h 18 min Bit rate : 24.2 Mb/s Width : 3 840 pixels Height : 1 604 pixels Display aspect ratio : 2.39:1 Frame rate mode : Constant Frame rate : 23.976 FPS Color space : YUV Chroma subsampling : 4:2:0 (Type 2) Bit depth : 10 bits Bits/(Pixel*Frame) : 0.164 Stream size : 23.5 GiB (86%) Title : Argylle Language : English Default : Yes Forced : Yes Color range : Limited Color primaries : BT.2020 Transfer characteristics : PQ Matrix coefficients : BT.2020 non-constant Mastering display color primar : Display P3 Mastering display luminance : min: 0.0050 cd/m2, max: 1000 cd/m2 Maximum Content Light Level : 831 cd/m2 Maximum Frame-Average Light Le : 346 cd/m2 Audio #1 ID : 2 Format : AC-3 Format/Info : Audio Coding 3 Commercial name : Dolby Digital Codec ID : A_AC3 Duration : 2 h 18 min Bit rate mode : Constant Bit rate : 448 kb/s Channel(s) : 6 channels Channel layout : L R C LFE Ls Rs Sampling rate : 48.0 kHz Frame rate : 31.250 FPS (1536 SPF) Compression mode : Lossy Stream size : 444 MiB (2%) Title : Дубляж (Bravo Records Georgia) Language : Russian Service kind : Complete Main Default : Yes Forced : No Audio #2 ID : 3 Format : E-AC-3 Format/Info : Enhanced AC-3 Commercial name : Dolby Digital Plus Codec ID : A_EAC3 Duration : 2 h 18 min Bit rate mode : Constant Bit rate : 768 kb/s Channel(s) : 6 channels Channel layout : L R C LFE Ls Rs Sampling rate : 48.0 kHz Frame rate : 31.250 FPS (1536 SPF) Compression mode : Lossy Stream size : 762 MiB (3%) Title : MVO (Jaskier) Language : Russian Service kind : Complete Main Default : No Forced : No Audio #3 ID : 4 Format : E-AC-3 Format/Info : Enhanced AC-3 Commercial name : Dolby Digital Plus Codec ID : A_EAC3 Duration : 2 h 18 min Bit rate mode : Constant Bit rate : 768 kb/s Channel(s) : 6 channels Channel layout : L R C LFE Ls Rs Sampling rate : 48.0 kHz Frame rate : 31.250 FPS (1536 SPF) Compression mode : Lossy Stream size : 762 MiB (3%) Title : MVO (TVShows) Language : Russian Service kind : Complete Main Default : No Forced : No Audio #4 ID : 5 Format : AC-3 Format/Info : Audio Coding 3 Commercial name : Dolby Digital Codec ID : A_AC3 Duration : 2 h 18 min Bit rate mode : Constant Bit rate : 192 kb/s Channel(s) : 2 channels Channel layout : L R Sampling rate : 48.0 kHz Frame rate : 31.250 FPS (1536 SPF) Compression mode : Lossy Stream size : 190 MiB (1%) Title : MVO (Red Head Sound) Language : Russian Service kind : Complete Main Default : No Forced : No Audio #5 ID : 6 Format : AC-3 Format/Info : Audio Coding 3 Commercial name : Dolby Digital Codec ID : A_AC3 Duration : 2 h 18 min Bit rate mode : Constant Bit rate : 640 kb/s Channel(s) : 6 channels Channel layout : L R C LFE Ls Rs Sampling rate : 48.0 kHz Frame rate : 31.250 FPS (1536 SPF) Compression mode : Lossy Stream size : 635 MiB (2%) Title : DVO (ViruseProject) Language : Russian Service kind : Complete Main Default : No Forced : No Audio #6 ID : 7 Format : AC-3 Format/Info : Audio Coding 3 Commercial name : Dolby Digital Codec ID : A_AC3 Duration : 2 h 18 min Bit rate mode : Constant Bit rate : 448 kb/s Channel(s) : 6 channels Channel layout : L R C LFE Ls Rs Sampling rate : 48.0 kHz Frame rate : 31.250 FPS (1536 SPF) Compression mode : Lossy Stream size : 444 MiB (2%) Title : Дубляж (LeDoyen) Language : Ukrainian Service kind : Complete Main Default : No Forced : No Audio #7 ID : 8 Format : E-AC-3 JOC Format/Info : Enhanced AC-3 with Joint Object Coding Commercial name : Dolby Digital Plus with Dolby Atmos Codec ID : A_EAC3 Duration : 2 h 18 min Bit rate mode : Constant Bit rate : 768 kb/s Channel(s) : 6 channels Channel layout : L R C LFE Ls Rs Sampling rate : 48.0 kHz Frame rate : 31.250 FPS (1536 SPF) Compression mode : Lossy Stream size : 762 MiB (3%) Title : Original Language : English Service kind : Complete Main Default : No Forced : No Complexity index : 16 Number of dynamic objects : 15 Bed channel count : 1 channel Bed channel configuration : LFE Text #1 ID : 9 Format : UTF-8 Codec ID : S_TEXT/UTF8 Codec ID/Info : UTF-8 Plain Text Duration : 2 h 11 min Bit rate : 2 b/s Frame rate : 0.008 FPS Count of elements : 62 Stream size : 2.34 KiB (0%) Title : Forced Language : Russian Default : Yes Forced : No Text #2 ID : 10 Format : UTF-8 Codec ID : S_TEXT/UTF8 Codec ID/Info : UTF-8 Plain Text Duration : 2 h 17 min Bit rate : 84 b/s Frame rate : 0.215 FPS Count of elements : 1776 Stream size : 84.9 KiB (0%) Title : Full Language : Russian Default : No Forced : No Text #3 ID : 11 Format : UTF-8 Codec ID : S_TEXT/UTF8 Codec ID/Info : UTF-8 Plain Text Duration : 2 h 18 min Bit rate : 96 b/s Frame rate : 0.247 FPS Count of elements : 2046 Stream size : 97.7 KiB (0%) Title : SDH Language : Russian Default : No Forced : No Text #4 ID : 12 Format : UTF-8 Codec ID : S_TEXT/UTF8 Codec ID/Info : UTF-8 Plain Text Duration : 2 h 11 min Bit rate : 2 b/s Frame rate : 0.008 FPS Count of elements : 61 Stream size : 2.44 KiB (0%) Title : Forced Language : Ukrainian Default : No Forced : No Text #5 ID : 13 Format : UTF-8 Codec ID : S_TEXT/UTF8 Codec ID/Info : UTF-8 Plain Text Duration : 2 h 17 min Bit rate : 84 b/s Frame rate : 0.215 FPS Count of elements : 1776 Stream size : 85.5 KiB (0%) Title : Full Language : Ukrainian Default : No Forced : No Text #6 ID : 14 Format : UTF-8 Codec ID : S_TEXT/UTF8 Codec ID/Info : UTF-8 Plain Text Duration : 2 h 18 min Bit rate : 95 b/s Frame rate : 0.247 FPS Count of elements : 2046 Stream size : 97.1 KiB (0%) Title : SDH Language : Ukrainian Default : No Forced : No Text #7 ID : 15 Format : UTF-8 Codec ID : S_TEXT/UTF8 Codec ID/Info : UTF-8 Plain Text Duration : 2 h 10 min Bit rate : 56 b/s Frame rate : 0.219 FPS Count of elements : 1713 Stream size : 54.3 KiB (0%) Title : Full Language : English Default : No Forced : No Text #8 ID : 16 Format : UTF-8 Codec ID : S_TEXT/UTF8 Codec ID/Info : UTF-8 Plain Text Duration : 2 h 15 min Bit rate : 65 b/s Frame rate : 0.254 FPS Count of elements : 2059 Stream size : 65.3 KiB (0%) Title : SDH Language : English Default : No Forced : No Menu 00:00:00.000 : Chapter 1 00:10:00.000 : Chapter 2 00:20:00.000 : Chapter 3 00:30:00.000 : Chapter 4 00:40:00.000 : Chapter 5 00:50:00.000 : Chapter 6 01:00:00.000 : Chapter 7 01:10:00.000 : Chapter 8 01:20:00.000 : Chapter 9 01:30:00.000 : Chapter 10 01:40:00.000 : Chapter 11 01:50:00.000 : Chapter 12 02:00:00.000 : Chapter 13 02:10:00.000 : Chapter 14
[+] Скриншоты

Всего файлов в раздаче: 1 
Argylle (2024) WEB-DL 2160p HDR-DV.mkv27.37 GB

Похожие раздачи по запросу - Аргайл
2024-03-23 magnet Аргайл: Супершпион / Argylle (2024) WEB-DL 720p от селезень | D 4.44 GB ↑ 0 ↓ 0
2024-03-23 magnet Аргайл: Супершпион / Argylle (2024) WEB-DL 2160p | 4K | SDR | D, P, P2 17.70 GB ↑ 0 ↓ 0
2024-03-23 magnet Аргайл: Супершпион / Argylle (2024) WEB-DLRip от toxics & селезень | D 2.18 GB ↑ 0 ↓ 0
2024-03-23 magnet Аргайл: Супершпион / Argylle (2024) WEB-DLRip от MegaPeer | D 1.46 GB ↑ 0 ↓ 1
2024-03-23 magnet Аргайл: Супершпион / Argylle (2024) WEB-DLRip-AVC от DoMiNo & селезень | D 2.14 GB ↑ 0 ↓ 0
2024-03-23 magnet Аргайл: Супершпион / Argylle (2024) WEB-DLRip 1080p от селезень | D 10.30 GB ↑ 0 ↓ 2
2024-03-23 magnet Аргайл: Супершпион / Argylle (2024) WEB-DL 1080p от EniaHD | D, P, P2 11.82 GB ↑ 0 ↓ 2

Комментарии


Зарегистрируйтесь чтобы добавить комментарий
Торрент клиент
byTorrent - программа для загрузки торрент-файлов.

Скачать byTorrent.exe (1,5 МБ)

Скачать byTorrent.zip (0,6 МБ)

Поддержи torrent.by
российских рублей
(300 российских рублей это 4$)

Обратная связь rss

End game ©