↑↓torrent.by
Поиск
Логин:  Регистрация
Пароль:

Дом у дороги / Придорожная закусочная / Road House (1989) HDRip-AVC от DoMiNo & селезень | P | 4K Restoration

download Скачать торрент-файл   magnet Магнитная ссылка Размер: 3.11 GB Добавлен: 2024-03-25 05:00
Пиры будут получены из сети DHT
Последний сидер был замечен 2024-04-09 18:47
Информация о фильме Название: Дом у дороги / Придорожная закусочная Оригинальное название: Road House Год выпуска: 1989 Жанр: Боевик, драма, криминал Режиссер: Роуди Херрингтон В ролях: Патрик Суэйзи, Келли Линч, Сэм Эллиотт, Бен Газзара, Маршалл Р. Тиг, Джули Майклс, Ред Уэст, Саншайн Паркер, Джефф Хили, Кевин Тай, Джон До, Кэтлин Уилхойт Описание: Далтон — знаменитый вышибала, который приезжает в Джаспер, штат Миссури, чтобы восстановить порядок в небезопасном баре «Две двойки». Он эффективно защищает бар от головорезов, хулиганов и убийц местного воротилы Брэда Уэсли, имеющего на «Две двойки» свои планы. Однако главная битва Далтона ещё впереди. Страна: США Продолжительность: 01:54:10 Перевод: Профессиональный (многоголосый, закадровый) x4 Субтитры: Русские, английские Файл Формат: Matroska Качество: HDRip-AVC | USA Transfer | Vinegar Syndrome | 4k Restoration Видео: 1024x426 at 23.976 fps, x264@L4.1, ~2679 kbps Аудио 01: Русский, AC3, 2 ch, 192 Кбит/с MVO, R5 Аудио 02: Русский, AC3, 2 ch, 192 Кбит/с MVO, CTC Аудио 03: Русский, AC3, 2 ch, 192 Кбит/с MVO, SDI Media Аудио 04: Русский, AC3, 2 ch, 192 Кбит/с MVO, НТВ+ Аудио 05: Английский, АС3, 6 ch, 448 Кбит/с Оригинал Формат субтитров: softsub (SRT) ***Рип от: -=DoMiNo=-
[+] M/IGeneral Unique ID : 23882792190600605570748243223437457597 (0x11F7A8911121ACB2777F3DA0AF5D38BD) Complete name : S:Road.House.1989.Remastered.x264.seleZen.mkv Format : Matroska Format version : Version 4 File size : 3.11 GiB Duration : 1 h 54 min Overall bit rate : 3 898 kb/s Frame rate : 23.976 FPS Movie name : Road.House.1989.Remastered.x264.seleZen Encoded date : 2024-03-24 14:28:22 UTC Writing application : mkvmerge v83.0 ('Circle Of Friends') 64-bit Writing library : libebml v1.4.5 + libmatroska v1.7.1 Cover : Yes Attachments : cover.jpg / small_cover.jpg Video ID : 1 Format : AVC Format/Info : Advanced Video Codec Format profile : High@L4.1 Format settings : CABAC / 14 Ref Frames Format settings, CABAC : Yes Format settings, Reference : 14 frames Codec ID : V_MPEG4/ISO/AVC Duration : 1 h 54 min Bit rate : 2 679 kb/s Width : 1 024 pixels Height : 426 pixels Display aspect ratio : 2.40:1 Frame rate mode : Constant Frame rate : 23.976 (24000/1001) FPS Color space : YUV Chroma subsampling : 4:2:0 Bit depth : 8 bits Scan type : Progressive Bits/(Pixel*Frame) : 0.256 Stream size : 2.14 GiB (69%) Title : -=DoMiNo=- Writing library : x264 core 164 r3190 7ed753b Encoding settings : cabac=1 / ref=14 / deblock=1:-1:-1 / analyse=0x3:0x133 / me=umh / subme=10 / psy=1 / psy_rd=1.05:0.03 / mixed_ref=1 / me_range=32 / chroma_me=1 / trellis=2 / 8x8dct=1 / cqm=0 / deadzone=21,11 / fast_pskip=0 / chroma_qp_offset=-3 / threads=13 / lookahead_threads=3 / sliced_threads=0 / nr=0 / decimate=0 / interlaced=0 / bluray_compat=0 / constrained_intra=0 / bframes=12 / b_pyramid=2 / b_adapt=2 / b_bias=0 / direct=1 / weightb=1 / open_gop=0 / weightp=2 / keyint=240 / keyint_min=23 / scenecut=40 / intra_refresh=0 / rc_lookahead=60 / rc=crf / mbtree=0 / crf=18.0 / qcomp=0.60 / qpmin=0 / qpmax=69 / qpstep=4 / vbv_maxrate=50000 / vbv_bufsize=62500 / crf_max=0.0 / nal_hrd=none / filler=0 / ip_ratio=1.40 / pb_ratio=1.30 / aq=1:0.80 Language : English Default : Yes Forced : No Color range : Limited Color primaries : BT.709 Transfer characteristics : BT.709 Matrix coefficients : BT.709 Audio #1 ID : 2 Format : AC-3 Format/Info : Audio Coding 3 Commercial name : Dolby Digital Codec ID : A_AC3 Duration : 1 h 54 min Bit rate mode : Constant Bit rate : 192 kb/s Channel(s) : 2 channels Channel layout : L R Sampling rate : 48.0 kHz Frame rate : 31.250 FPS (1536 SPF) Compression mode : Lossy Stream size : 157 MiB (5%) Title : MVO, R5 Language : Russian Service kind : Complete Main Default : Yes Forced : No Audio #2 ID : 3 Format : AC-3 Format/Info : Audio Coding 3 Commercial name : Dolby Digital Codec ID : A_AC3 Duration : 1 h 54 min Bit rate mode : Constant Bit rate : 192 kb/s Channel(s) : 2 channels Channel layout : L R Sampling rate : 48.0 kHz Frame rate : 31.250 FPS (1536 SPF) Compression mode : Lossy Stream size : 157 MiB (5%) Title : MVO, СТС Language : Russian Service kind : Complete Main Default : No Forced : No Audio #3 ID : 4 Format : AC-3 Format/Info : Audio Coding 3 Commercial name : Dolby Digital Codec ID : A_AC3 Duration : 1 h 54 min Bit rate mode : Constant Bit rate : 192 kb/s Channel(s) : 2 channels Channel layout : L R Sampling rate : 48.0 kHz Frame rate : 31.250 FPS (1536 SPF) Compression mode : Lossy Stream size : 157 MiB (5%) Title : MVO, SDI Media Language : Russian Service kind : Complete Main Default : No Forced : No Audio #4 ID : 5 Format : AC-3 Format/Info : Audio Coding 3 Commercial name : Dolby Digital Codec ID : A_AC3 Duration : 1 h 54 min Bit rate mode : Constant Bit rate : 192 kb/s Channel(s) : 2 channels Channel layout : L R Sampling rate : 48.0 kHz Frame rate : 31.250 FPS (1536 SPF) Compression mode : Lossy Stream size : 157 MiB (5%) Title : MVO, НТВ+ Language : Russian Service kind : Complete Main Default : No Forced : No Audio #5 ID : 6 Format : AC-3 Format/Info : Audio Coding 3 Commercial name : Dolby Digital Codec ID : A_AC3 Duration : 1 h 54 min Bit rate mode : Constant Bit rate : 448 kb/s Channel(s) : 6 channels Channel layout : L R C LFE Ls Rs Sampling rate : 48.0 kHz Frame rate : 31.250 FPS (1536 SPF) Compression mode : Lossy Stream size : 366 MiB (11%) Language : English Service kind : Complete Main Default : No Forced : No Text #1 ID : 7 Format : UTF-8 Codec ID : S_TEXT/UTF8 Codec ID/Info : UTF-8 Plain Text Duration : 1 h 53 min Bit rate : 53 b/s Frame rate : 0.147 FPS Count of elements : 1000 Stream size : 44.4 KiB (0%) Title : SDH Language : Russian Default : No Forced : No Text #2 ID : 8 Format : UTF-8 Codec ID : S_TEXT/UTF8 Codec ID/Info : UTF-8 Plain Text Duration : 1 h 47 min Bit rate : 32 b/s Frame rate : 0.139 FPS Count of elements : 903 Stream size : 26.0 KiB (0%) Title : Full Language : English Default : No Forced : No Text #3 ID : 9 Format : UTF-8 Codec ID : S_TEXT/UTF8 Codec ID/Info : UTF-8 Plain Text Duration : 1 h 53 min Bit rate : 42 b/s Frame rate : 0.200 FPS Count of elements : 1365 Stream size : 35.8 KiB (0%) Title : SDH Language : English Default : No Forced : No Menu 00:00:00.000 : en:Opening Credits 00:04:01.282 : en:Double Deuce 00:06:14.332 : en:Welcome to Jasper 00:09:37.660 : en:Paid to Play 00:12:27.496 : en:Ten a Kiss 00:16:15.933 : en:She's a Runner 00:21:49.641 : en:3 Rules 00:25:34.157 : en:Cleaning House 00:29:37.692 : en:No Joke 00:32:14.057 : en:Hello Red 00:36:32.815 : en:Little Mistake 00:39:04.175 : en:Pain Don't Hurt 00:41:57.556 : en:Everybody Pays 00:45:52.916 : en:New Town, Same Story 00:47:37.729 : en:Sorry, We're Closed 00:50:54.009 : en:Fan Club 00:53:47.098 : en:Because of Me 00:57:36.327 : en:Running Out of Booze 00:59:32.694 : en:You Can Stay 01:06:19.058 : en:Word Is... 01:10:47.576 : en:It's a Lie 01:15:38.283 : en:Things Heat Up 01:23:35.927 : en:This Is My Town 01:29:16.976 : en:Prepare to Die 01:35:39.734 : en:Coin Toss 01:40:33.485 : en:Tails Again... 01:43:55.270 : en:Trophy Room 01:49:15.715 : en:End Credits
Релиз: Присоединяйся к: Кликай на баннеры.

Всего файлов в раздаче: 1 
Road.House.1989.Remastered.x264.seleZen.mkv3.11 GB

Похожие раздачи по запросу - Дом
2024-04-17 magnet Дом удовольствия / 11 дней, 11 ночей 7 - Дом удовольствия / La casa del piacere (1994) DVDRip | L1 745.44 MB ↑ 1 ↓ 0
2024-04-13 magnet Дом у дороги / Road House (2024) WEB-DL 1080p | D, P, P2, A 12.60 GB ↑ 1 ↓ 31
2024-04-08 magnet Дом у дороги / Road House (2024) WEB-DLRip-AVC от DoMiNo & селезень | D, P 3.26 GB ↑ 0 ↓ 7
2024-04-08 magnet Дом у дороги / Road House (2024) WEB-DLRip-AVC от New-Team | D | HDRezka Studio 1.75 GB ↑ 0 ↓ 4
2024-04-07 magnet Похитители бриллиантов / Дом 11 по улице Хэрроухаус / 11 Harrowhouse (1974) WEB-DLRip-AVC от ExKinoRay | P, P2, A 1.75 GB ↑ 0 ↓ 0
2024-04-07 magnet Дом у дороги / Road House (2024) WEB-DLRip-HEVC 1080p от AllHevc | HDRezka Studio | D 3.05 GB ↑ 0 ↓ 3
2024-04-05 magnet Дом у дороги / Road House (2024) WEB-DL-HEVC 2160p | 4K | SDR | D, P, P2, A 16.82 GB ↑ 2 ↓ 5

Комментарии


Зарегистрируйтесь чтобы добавить комментарий
Торрент клиент
byTorrent - программа для загрузки торрент-файлов.

Скачать byTorrent.exe (1,5 МБ)

Скачать byTorrent.zip (0,6 МБ)

Поддержи torrent.by
российских рублей
(300 российских рублей это 4$)

Обратная связь rss

End game ©