↑↓torrent.by
Поиск
Логин:  Регистрация
Пароль:

Гарем рабов в лабиринте другого мира / Isekai Meikyuu de Harem wo [S01] (2022) BDRip-HEVC 1080p | L, L2

download Скачать торрент-файл   magnet Магнитная ссылка Размер: 12.93 GB Добавлен: 2024-03-25 05:00
Пиры будут получены из сети DHT
Последний сидер был замечен 2024-04-12 16:50
Информация о фильме Название: Гарем рабов в лабиринте другого мира Оригинальное название: Isekai Meikyuu de Harem o (Harem in the Labyrinth of Another World) Год выхода: 2022 Жанр: Приключения, мелодрама, экшен, фэнтези, романтика, этти, гарем, боевик Режиссер: Наоюки Тацува Роли озвучивали: Таку Ясиро, Сиори Миками, Кэнта Миякэ, Сиори Идзава, Хонока Куроки, Рина Хонъидзуми, Микако Идзава Возрастное ограничение: Для зрителей старше 18-ти лет Описание: Пытающийся сбежать от реальных проблем, старшеклассник Митио Кага ищет укрытия в интернете и однажды натыкается на сайт, где предлагается создать собственного персонажа. Решив развлечься, Митио долго корпел над необходимыми навыками и статусами. А в самом конце на экране появилось окно с уведомлением: «Сейчас вы будете перемещены в игровой мир. Вы не сможете покинуть его, пока не пройдёте игру до конца. Вы согласны?». Не задумавшись о серьёзности вопроса, Митио нажал ОК и переместился в мир фэнтези в облике созданного им персонажа. К удивлению Митио, здесь всё по-настоящему: приключения и сексуальные красавицы, голод и бандиты, кровь и смерть. Если Митио хочет вернуться, ему нужно выжить, а пока выживает, он соберёт себе гарем! Страна: Япония Студия: Passione Продолжительность: 12 x ~ 00:24:00 Перевод: Любительский многоголосый AniDUB Любительский многоголосый SHIZA Project (Viki & Zariko & Leo & eil & DiWilliam) Любительский двухголосый Shikoku Studio (Lonely Dragon & Чаек) Файл Формат: MKV Качество: BDRip 1080p | Видео: HEVC, ~ 4525 Кбит/с, 1920x1080, 10 бит Аудио #1: AAC LC, 2 ch, 48 kHz, 317 kbps | Русский | AniDUB Аудио #2: AAC LC, 2 ch, 48 kHz, 192 kbps | Русский | SHIZA Project Аудио #3: AAC LC, 2 ch, 48 kHz, 192 kbps | Русский | Shikoku Studio Аудио #4: FLAC, 2 ch, 48 kHz, 24 bit, ~1 351 kbps | Японский | Оригинал Субтитры: Русские надписи, русские, английские (софтсаб) | SHIZA Project, YakuSub Studio, Crunchyroll Автор релиза: EvraGo Реклама: отсутствует
[+] MediaInfoGeneral Unique ID : 131748571213005593635565864264860701571 (0x631DDA1260F027C24B66D4BBD4C81383) Complete name : G:РаздачиГотовые Isekai Meikyuu de Harem wo Isekai Meikyuu de Harem wo 01 .mkv Format : Matroska Format version : Version 4 File size : 1.10 GiB Duration : 23 min 41 s Overall bit rate mode : Variable Overall bit rate : 6 624 kb/s Frame rate : 23.976 FPS Encoded date : 2024-03-22 18:33:47 UTC Writing application : mkvmerge v83.0 ('Circle Of Friends') 64-bit Writing library : libebml v1.4.5 + libmatroska v1.7.1 Attachments : arial.ttf / arialbd.ttf / arialbi.ttf / ariali.ttf / impact.ttf / tahoma.ttf / tahomabd.ttf / timesbd.ttf / trebuc.ttf / trebucbi.ttf / FrizQuadrataC Italic.otf / FrizQuadrataC.otf Video ID : 1 Format : HEVC Format/Info : High Efficiency Video Coding Format profile : Main 10@L4@High Codec ID : V_MPEGH/ISO/HEVC Duration : 23 min 41 s Bit rate : 4 525 kb/s Width : 1 920 pixels Height : 1 080 pixels Display aspect ratio : 16:9 Frame rate mode : Constant Frame rate : 23.976 (24000/1001) FPS Color space : YUV Chroma subsampling : 4:2:0 Bit depth : 10 bits Bits/(Pixel*Frame) : 0.091 Stream size : 767 MiB (68%) Writing library : x265 3.5+97-ga456c6e73+3-g87155154d: Kyouko 10bit+8bit+12bit Encoding settings : rc=crf / crf=14.0000 / qcomp=0.67 / qpstep=4 / stats-write=0 / stats-read=0 / vbv-maxrate=30000 / vbv-bufsize=40000 / vbv-init=0.9 / min-vbv-fullness=50.0 / max-vbv-fullness=80.0 / crf-max=0.0 / crf-min=0.0 / qscale-mode=0 / no-lossless / no-cu-lossless / aq-mode=3 / no-limit-aq1 / aq-strength=0.95 / aq-bias-strength=1.00 / limit-aq1-strength=1.00 / cbqpoffs=-2 / crqpoffs=-2 / ipratio=1.40 / pbratio=1.20 / psy-rd=2.00 / psy-rdoq=1.00 / psy-bscale=300 / psy-pscale=256 / psy-iscale=96 / deblock=-1:-1 / ref=5 / limit-refs=0 / no-limit-modes / bframes=16 / b-adapt=2 / bframe-bias=0 / b-pyramid / b-intra / weightp / weightb / min-keyint=1 / max-keyint=360 / rc-lookahead=240 / gop-lookahead=0 / scenecut=40 / hist-scenecut=0 / radl=0 / max-cu-size=32 / min-cu-size=8 / me=3 / subme=7 / merange=32 / rdoq-level=1 / rd=5 / rdpenalty=0 / dynamic-rd=0.00 / no-rd-refine / ----- / cutree / cutree-strength=1.65 / cutree-minqpoffs=-69.00 / cutree-maxqpoffs=69.00 / no-sao / rect / no-amp / no-open-gop / wpp / no-pmode / no-pme / no-psnr / no-ssim / nr-intra=0 / nr-inter=0 / no-constrained-intra / no-strong-intra-smoothing / max-tu-size=16 / tu-inter-depth=4 / tu-intra-depth=4 / limit-tu=0 / qg-size=32 / qpmax=69 / qpmin=0 / ----- / cpuid=1111039 / frame-threads=5 / numa-pools=+ / log-level=2 / input-csp=1 / input-res=1920x1080 / interlace=0 / level-idc=0 / high-tier=1 / uhd-bd=0 / no-allow-non-conformance / no-repeat-headers / no-aud / no-hrd / info / hash=0 / no-temporal-layers / lookahead-slices=0 / no-splice / no-intra-refresh / no-ssim-rd / signhide / tskip / max-merge=5 / temporal-mvp / no-frame-dup / no-hme / no-analyze-src-pics / no-sao-non-deblock / selective-sao=0 / no-early-skip / no-rskip / no-fast-intra / no-tskip-fast / no-splitrd-skip / zone-count=0 / no-strict-cbr / no-rc-grain / no-const-vbv / sar=0 / overscan=0 / videoformat=5 / range=0 / colorprim=1 / transfer=1 / colormatrix=1 / chromaloc=0 / display-window=0 / cll=0,0 / min-luma=0 / max-luma=1023 / log2-max-poc-lsb=8 / vui-timing-info / vui-hrd-info / slices=1 / no-opt-qp-pps / no-opt-ref-list-length-pps / no-multi-pass-opt-rps / scenecut-bias=0.05 / hist-threshold=0.03 / no-opt-cu-delta-qp / no-aq-motion / no-hdr10 / no-hdr10-opt / no-dhdr10-opt / no-idr-recovery-sei / analysis-reuse-level=0 / analysis-save-reuse-level=0 / analysis-load-reuse-level=0 / scale-factor=0 / refine-intra=0 / refine-inter=0 / refine-mv=1 / refine-ctu-distortion=0 / no-limit-sao / ctu-info=0 / no-lowpass-dct / refine-analysis-type=0 / copy-pic=1 / max-ausize-factor=1.0 / no-dynamic-refine / no-single-sei / no-hevc-aq / no-svt / no-field / qp-adaptation-range=1.00 / scenecut-aware-qp=0conformance-window-offsets / right=0 / bottom=0 / decoder-max-rate=0 / no-vbv-live-multi-pass Default : Yes Forced : No Color range : Limited Color primaries : BT.709 Transfer characteristics : BT.709 Matrix coefficients : BT.709 Audio #1 ID : 2 Format : AAC LC Format/Info : Advanced Audio Codec Low Complexity Codec ID : A_AAC-2 Duration : 23 min 41 s Bit rate : 317 kb/s Channel(s) : 2 channels Channel layout : L R Sampling rate : 48.0 kHz Frame rate : 46.875 FPS (1024 SPF) Compression mode : Lossy Stream size : 53.7 MiB (5%) Title : AniDUB Language : Russian Default : Yes Forced : No Audio #2 ID : 3 Format : AAC LC Format/Info : Advanced Audio Codec Low Complexity Codec ID : A_AAC-2 Duration : 23 min 41 s Bit rate : 192 kb/s Channel(s) : 2 channels Channel layout : L R Sampling rate : 48.0 kHz Frame rate : 46.875 FPS (1024 SPF) Compression mode : Lossy Stream size : 32.5 MiB (3%) Title : SHIZA Project Language : Russian Default : No Forced : No Audio #3 ID : 4 Format : AAC LC Format/Info : Advanced Audio Codec Low Complexity Codec ID : A_AAC-2 Duration : 23 min 41 s Bit rate : 192 kb/s Channel(s) : 2 channels Channel layout : L R Sampling rate : 48.0 kHz Frame rate : 46.875 FPS (1024 SPF) Compression mode : Lossy Stream size : 32.5 MiB (3%) Title : Shikoku Studio Language : Russian Default : No Forced : No Audio #4 ID : 5 Format : FLAC Format/Info : Free Lossless Audio Codec Codec ID : A_FLAC Duration : 23 min 41 s Bit rate mode : Variable Bit rate : 1 351 kb/s Channel(s) : 2 channels Channel layout : L R Sampling rate : 48.0 kHz Frame rate : 11.719 FPS (4096 SPF) Bit depth : 24 bits Compression mode : Lossless Stream size : 229 MiB (20%) Writing library : libFLAC 1.3.2 (2017-01-01) Language : Japanese Default : No Forced : No MD5 of the unencoded conten : AC211CF5A248BC1075CC9512BE95DD29 Text #1 ID : 6 Format : ASS Codec ID : S_TEXT/ASS Codec ID/Info : Advanced Sub Station Alpha Duration : 21 min 50 s Bit rate : 83 b/s Frame rate : 0.092 FPS Count of elements : 121 Compression mode : Lossless Stream size : 13.3 KiB (0%) Title : SHIZA Project Language : Russian Default : Yes Forced : Yes Text #2 ID : 7 Format : ASS Codec ID : S_TEXT/ASS Codec ID/Info : Advanced Sub Station Alpha Duration : 22 min 9 s Bit rate : 272 b/s Frame rate : 0.356 FPS Count of elements : 473 Compression mode : Lossless Stream size : 44.3 KiB (0%) Title : YakuSub Studio Language : Russian Default : No Forced : No Text #3 ID : 8 Format : ASS Codec ID : S_TEXT/ASS Codec ID/Info : Advanced Sub Station Alpha Duration : 22 min 9 s Bit rate : 439 b/s Frame rate : 0.441 FPS Count of elements : 587 Compression mode : Lossless Stream size : 71.3 KiB (0%) Title : Crunchyroll Language : Russian Default : No Forced : No Text #4 ID : 9 Format : ASS Codec ID : S_TEXT/ASS Codec ID/Info : Advanced Sub Station Alpha Duration : 22 min 3 s Bit rate : 194 b/s Frame rate : 0.356 FPS Count of elements : 471 Compression mode : Lossless Stream size : 31.4 KiB (0%) Title : Crunchyroll Language : English Default : No Forced : No Menu 00:00:00.000 : en:Chapter 01 00:00:14.014 : en:Chapter 02 00:01:44.021 : en:Chapter 03 00:09:41.998 : en:Chapter 04 00:22:09.954 : en:Chapter 05
[+] Список серий01. Встреча / Encounter 02. План по заработку денег / Raising Money 03. Овладение / Acquisition 04. Выпускник / Graduation 05. Кристалл / Crystal 06. Испытание / Trials 07. Магия / Magic 08. Новый дом / New Home 09. Баня / Bath 10. Меланхолия / Melancholy 11. Порядок действий / Order 12. Люди / Humans
[+] Скриншоты

Всего файлов в раздаче: 12 
[Nekomoe kissaten&VCB-Studio] Isekai Meikyuu de Harem wo 01 [BDRip 1080p x265 FLAC].mkv1.10 GB
[Nekomoe kissaten&VCB-Studio] Isekai Meikyuu de Harem wo 02 [BDRip 1080p x265 FLAC].mkv1.10 GB
[Nekomoe kissaten&VCB-Studio] Isekai Meikyuu de Harem wo 03 [BDRip 1080p x265 FLAC].mkv1021.67 MB
[Nekomoe kissaten&VCB-Studio] Isekai Meikyuu de Harem wo 04 [BDRip 1080p x265 FLAC].mkv992.51 MB
[Nekomoe kissaten&VCB-Studio] Isekai Meikyuu de Harem wo 05 [BDRip 1080p x265 FLAC].mkv1.18 GB
[Nekomoe kissaten&VCB-Studio] Isekai Meikyuu de Harem wo 06 [BDRip 1080p x265 FLAC].mkv1.20 GB
[Nekomoe kissaten&VCB-Studio] Isekai Meikyuu de Harem wo 07 [BDRip 1080p x265 FLAC].mkv1.20 GB
[Nekomoe kissaten&VCB-Studio] Isekai Meikyuu de Harem wo 08 [BDRip 1080p x265 FLAC].mkv1.02 GB
[Nekomoe kissaten&VCB-Studio] Isekai Meikyuu de Harem wo 09 [BDRip 1080p x265 FLAC].mkv1.11 GB
[Nekomoe kissaten&VCB-Studio] Isekai Meikyuu de Harem wo 10 [BDRip 1080p x265 FLAC].mkv1.06 GB
Показать все файлы

Похожие раздачи по запросу - Гарем
2023-12-20 magnet Ильза - хранительница гарема нефтяного шейха / Гарем / Ilsa, Harem Keeper of the Oil Sheiks (1976) HDRip | A, L1 700.95 MB ↑ 1 ↓ 0

Комментарии


Зарегистрируйтесь чтобы добавить комментарий
Торрент клиент
byTorrent - программа для загрузки торрент-файлов.

Скачать byTorrent.exe (1,5 МБ)

Скачать byTorrent.zip (0,6 МБ)

Поддержи torrent.by
российских рублей
(300 российских рублей это 4$)

Обратная связь rss

End game ©