↑↓torrent.by
Поиск
Логин:  Регистрация
Пароль:

Нейросеть / #No Filter (2022) BDRip 1080p от MegaPeer | D

download Скачать торрент-файл   magnet Магнитная ссылка Размер: 7.53 GB Добавлен: 2024-03-25 05:00
Пиры будут получены из сети DHT
Последний сидер был замечен 2024-03-26 19:35
«Не дай ей стать тобой» Информация Название: Нейросеть Оригинальное название: #No Filter Год выхода: 2022 Жанр: Ужасы Режиссер: Михаэль Дюпре В ролях: Ханна Макивер, Жасмин Дауд, Самуэль Ван дер Цвальмен, Кэрол Уэйерс, Дэвид Коберн, Кассим Местерс, Рейки де Валк, Прия Блэкберн, Дженис Ахерн, Дайян Уэллер Описание: Популярность блогера Анны растет на глазах. Возникают догадки, что Анна использовала нейросеть и другие инструменты виртуальной реальности для раскрутки своего контента. Могущественный и беспощадный искусственный интеллект, воплощенный в нейросети, внезапно выходит из-под контроля. Он завладевает сознанием и телами людей, чтобы подменить человеческую реальность своей. Как не дать нейросети захватить наш мир? Страна: Бельгия Студия: BeTV, Black Swan Tales, Entre Chien et Loup, Mediawan, RTL Продолжительность: 01:27:36 Перевод: Профессиональный (полное дублирование) | Paragraph Media Файл Качество: BDRip Исходник: No.Filter.2022.MULTi.COMPLETE.BLURAY-MONUMENT Формат: MKV Кодек: MPEG-4 AVC Видео: 1920x960 (2.000:1), 25 fps, MPEG-4 AVC ~ 11.3 Mbps avg, 0.245 bit/pixel Аудио: AC3, 48 kHz, 6 ch, ~384.00 kbps avg | русский | DUB | Аудио: AC3, 48 kHz, 6 ch, ~640.00 kbps avg | немецкий | Субтитры: Русские (форсированные), Немецкие (Full)
[+] Инфо-файлОбщее Уникальный идентификатор : 172954025463650279044954152794829766118 (0x821DBBD16C062F238C9D3DD664D63DE6) Полное имя : No.Filter.2022.1080p.BluRay.DD.5.1.x264-MegaPeer.mkv Формат : Matroska Версия формата : Version 4 Размер файла : 7,53 Гбайт Продолжительность : 1 ч. 27 м. Общий поток : 12,3 Мбит/сек Частота кадров : 25,000 кадров/сек Название фильма : Нейросеть / #No Filter (2022) от stillet@MegaPeer Дата кодирования : 2024-03-24 11:45:57 UTC Программа кодирования : mkvmerge v15.0.0 ('Duel with the Devil') 64-bit Библиотека кодирования : libebml v1.3.5 + libmatroska v1.4.5 Обложка : Yes Attachments : cover.jpg Видео Идентификатор : 1 Формат : AVC Формат/Информация : Advanced Video Codec Профиль формата : High@L4.1 Настройки формата : CABAC / 4 Ref Frames Параметр CABAC формата : Да Параметр RefFrames формата : 4 кадра Идентификатор кодека : V_MPEG4/ISO/AVC Продолжительность : 1 ч. 27 м. Битрейт : 11,3 Мбит/сек Ширина : 1 920 пикселей Высота : 960 пикселей Соотношение сторон : 2,000 Режим частоты кадров : Постоянный Частота кадров : 25,000 кадров/сек Цветовое пространство : YUV Субдискретизация насыщенности : 4:2:0 Битовая глубина : 8 бит Тип развёртки : Прогрессивная Бит/(Пиксели*Кадры) : 0.245 Размер потока : 6,90 Гбайт (92%) Библиотека кодирования : x264 core 164 r3156+57M stillet t_mod_New Настройки программы : cabac=1 / ref=4 / deblock=1:-3:-3 / analyse=0x3:0x113 / me=umh / subme=10 / psy=1 / fade_compensate=0.00 / psy_rd=1.00:0.00 / mixed_ref=1 / me_range=32 / chroma_me=1 / trellis=2 / 8x8dct=1 / cqm=0 / deadzone=21,11 / fast_pskip=0 / chroma_qp_offset=-2 / threads=12 / lookahead_threads=3 / sliced_threads=0 / nr=0 / decimate=0 / interlaced=0 / bluray_compat=0 / constrained_intra=0 / fgo=0 / bframes=10 / b_pyramid=2 / b_adapt=2 / b_bias=0 / direct=3 / weightb=1 / open_gop=0 / weightp=2 / keyint=240 / keyint_min=24 / scenecut=40 / intra_refresh=0 / rc_lookahead=40 / rc=2pass / mbtree=0 / bitrate=11289 / ratetol=1.0 / qcomp=0.60 / qpmin=0:0:0 / qpmax=69:69:69 / qpstep=4 / cplxblur=20.0 / qblur=0.5 / vbv_maxrate=50000 / vbv_bufsize=62500 / nal_hrd=none / filler=0 / ip_ratio=1.40 / pb_ratio=1.30 / aq=1:1.10 / aq-sensitivity=10.00 / aq-factor=1.00:1.00:1.00 / aq2=0 / aq3=0 Язык : English Default : Да Forced : Нет Аудио #1 Идентификатор : 2 Формат : AC-3 Формат/Информация : Audio Coding 3 Коммерческое название : Dolby Digital Идентификатор кодека : A_AC3 Продолжительность : 1 ч. 27 м. Вид битрейта : Постоянный Битрейт : 384 Кбит/сек Каналы : 6 каналов Channel layout : L R C LFE Ls Rs Частота : 48,0 КГц Частота кадров : 31,250 кадров/сек (1536 SPF) Метод сжатия : С потерями Размер потока : 241 Мбайт (3%) Заголовок : DUB | Paragraph Media Язык : Russian Service kind : Complete Main Default : Да Forced : Да Аудио #2 Идентификатор : 3 Формат : AC-3 Формат/Информация : Audio Coding 3 Коммерческое название : Dolby Digital Идентификатор кодека : A_AC3 Продолжительность : 1 ч. 27 м. Вид битрейта : Постоянный Битрейт : 640 Кбит/сек Каналы : 6 каналов Channel layout : L R C LFE Ls Rs Частота : 48,0 КГц Частота кадров : 31,250 кадров/сек (1536 SPF) Метод сжатия : С потерями Размер потока : 401 Мбайт (5%) Язык : German Service kind : Complete Main Default : Нет Forced : Нет Текст #1 Идентификатор : 4 Формат : UTF-8 Идентификатор кодека : S_TEXT/UTF8 Идентификатор кодека/Информация : UTF-8 Plain Text Продолжительность : 1 ч. 20 м. Битрейт : 7 бит/сек Частота кадров : 0,022 кадр/сек Count of elements : 104 Размер потока : 4,26 Кбайт (0%) Заголовок : Forced Язык : Russian Default : Да Forced : Да Текст #2 Идентификатор : 5 Формат : UTF-8 Идентификатор кодека : S_TEXT/UTF8 Идентификатор кодека/Информация : UTF-8 Plain Text Продолжительность : 1 ч. 25 м. Битрейт : 67 бит/сек Частота кадров : 0,193 кадр/сек Count of elements : 996 Размер потока : 42,3 Кбайт (0%) Заголовок : Full Язык : German Default : Нет Forced : Нет Меню 00:00:00.000 : Chapter 01 00:09:02.519 : Chapter 02 00:18:06.078 : Chapter 03 00:32:17.680 : Chapter 04 00:41:59.960 : Chapter 05 00:47:47.119 : Chapter 06 00:53:56.039 : Chapter 07 00:59:13.000 : Chapter 08 01:06:58.039 : Chapter 09 01:12:45.640 : Chapter 10 01:19:01.680 : Chapter 11 01:25:17.158 : Chapter 12 01:27:36.359 : Chapter 13
Релиз:

Всего файлов в раздаче: 1 
No.Filter.2022.1080p.BluRay.DD.5.1.x264-MegaPeer.mkv7.53 GB

Похожие раздачи по запросу - Нейросеть
2024-03-24 magnet Нейросеть / #No Filter (2022) BDRip от MegaPeer | D 1.46 GB ↑ 0 ↓ 0

Комментарии


Зарегистрируйтесь чтобы добавить комментарий
Торрент клиент
byTorrent - программа для загрузки торрент-файлов.

Скачать byTorrent.exe (1,5 МБ)

Скачать byTorrent.zip (0,6 МБ)

Поддержи torrent.by
российских рублей
(300 российских рублей это 4$)

Обратная связь rss

End game ©