↑↓torrent.by
Поиск
Логин:  Регистрация
Пароль:

Бедные-несчастные / Бідолашні створіння / Poor Things (2023) BDRip 1080p | P, L1 | UKR

download Скачать торрент-файл   magnet Магнитная ссылка Размер: 21.45 GB Добавлен: 2024-03-25 05:00
Пиры будут получены из сети DHT
Последний сидер был замечен 2024-03-26 19:33
Информация о фильме Название: Бедные-несчастные Оригинальное название: Poor Things Год выхода: 2023 Жанр: драма, комедия, фантастика Режиссер: Йоргос Лантимос В ролях: Эмма Стоун, Уиллем Дефо, Марк Руффало, Рами Юссеф, Ханна Шигулла, Джеррод Кармайкл, Кэтрин Хантер, Сьюзи Бемба, Кристофер Эбботт, Вики Пеппердин О фильме: Викторианский Лондон. Сумасшедший хирург Годвин вылавливает из Темзы тело молодой беременной женщины, прыгнувшей с моста, пересаживает ей мозг её собственного нерожденного младенца и реанимирует. Белла поначалу передвигается как сломанная кукла и имеет весьма ограниченный словарный запас, но быстро учится. Чтобы наблюдать за ней, Годвин призывает на помощь студента-медика Макса, который заодно выглядит хорошей партией для девушки, но на Беллу кладет глаз плейбой-юрист Данкан Веддерберн и увлекает её в путешествие, где она познает мир и себя. Страна: Ирландия, Великобритания, США, Венгрия Студия: Element Pictures, Film Four Ltd., Fox Searchlight Pictures, Fruit Tree, Hungarian Tax Credit Продолжительность: 02:21:40 Перевод(ы): #1: Профессиональный (многоголосый закадровый) | Цікава Ідея (Украинский) #2: Профессиональный (многоголосый закадровый) | Sunnysiders (Украинский) #3: Любительский (одноголосый закадровый) | Колодій Трейлерів (Украинский) | 18+ Файл Кодек: x.264 Качество: BDRip 1080p Видео: AVC, 1792x1080 (5:3), 23.976 fps, 19.6 Mb/s Аудио 1: AC3, 48.0 kHz, 6 ch, 512 kb/s | UKR (MVO, Цікава Ідея) Аудио 2: AC3, 48.0 kHz, 6 ch, 448 kb/s | UKR (MVO, Sunnysiders) Аудио 3: AC3, 48.0 kHz, 6 ch, 448 kb/s | UKR (VO, Колодій Трейлерів) | 18+ Аудио 4: AC3, 48.0 kHz, 6 ch, 640 kb/s | ENG Субтитры: украинские (2 x forced, full), английские (SDH)
[+] MIGeneral Unique ID : 222919619625412246468702376159124953962 (0xA7B4C1CEDE1C6E849BA23D476BE89B6A) Complete name : Poor.Things.(2023).BDRip.1080p.3xUkr.Eng.mkv Format : Matroska Format version : Version 4 File size : 21.4 GiB Duration : 2 h 21 min Overall bit rate : 21.7 Mb/s Encoded date : UTC 2024-03-23 17:41:15 Writing application : mkvmerge v8.3.0 ('Over the Horizon') 64bit Writing library : libebml v1.3.1 + libmatroska v1.4.2 Video ID : 1 Format : AVC Format/Info : Advanced Video Codec Format profile : High@L4.1 Format settings : CABAC / 4 Ref Frames Format settings, CABAC : Yes Format settings, Reference frames : 4 frames Codec ID : V_MPEG4/ISO/AVC Duration : 2 h 21 min Bit rate : 19.6 Mb/s Width : 1 792 pixels Height : 1 080 pixels Display aspect ratio : 5:3 Frame rate mode : Constant Frame rate : 23.976 (24000/1001) FPS Color space : YUV Chroma subsampling : 4:2:0 Bit depth : 8 bits Scan type : Progressive Bits/(Pixel*Frame) : 0.423 Stream size : 19.4 GiB (91%) Writing library : x264 core 164 r3075+55M t_mod ~ Encoded by luvBB: JigSaw & droops16 Encoding settings : cabac=1 / ref=4 / deblock=1:-3:-3 / analyse=0x3:0x133 / me=umh / subme=10 / psy=1 / fade_compensate=0.00 / psy_rd=1.00:0.00 / mixed_ref=1 / me_range=32 / chroma_me=1 / trellis=2 / 8x8dct=1 / cqm=0 / deadzone=21,11 / fast_pskip=0 / chroma_qp_offset=-2 / threads=16 / lookahead_threads=2 / sliced_threads=0 / nr=0 / decimate=0 / interlaced=0 / bluray_compat=0 / constrained_intra=0 / fgo=0 / bframes=9 / b_pyramid=2 / b_adapt=2 / b_bias=0 / direct=3 / weightb=1 / open_gop=0 / weightp=2 / keyint=250 / keyint_min=23 / scenecut=40 / intra_refresh=0 / rc=crf / mbtree=0 / crf=17.6000 / qcomp=0.60 / qpmin=0:0:0 / qpmax=69:69:69 / qpstep=4 / ip_ratio=1.30 / pb_ratio=1.20 / aq=3:0.85 / aq-sensitivity=10.00 / aq-factor=1.00:1.00:1.00 / aq2=0 / aq3=0 Default : Yes Forced : No Audio #1 ID : 2 Format : AC-3 Format/Info : Audio Coding 3 Commercial name : Dolby Digital Codec ID : A_AC3 Duration : 2 h 21 min Bit rate mode : Constant Bit rate : 512 kb/s Channel(s) : 6 channels Channel layout : L R C LFE Ls Rs Sampling rate : 48.0 kHz Frame rate : 31.250 FPS (1536 SPF) Compression mode : Lossy Stream size : 519 MiB (2%) Title : MVO (Цікава Ідея) Language : Ukrainian Service kind : Complete Main Default : Yes Forced : No Audio #2 ID : 3 Format : AC-3 Format/Info : Audio Coding 3 Commercial name : Dolby Digital Codec ID : A_AC3 Duration : 2 h 21 min Bit rate mode : Constant Bit rate : 448 kb/s Channel(s) : 6 channels Channel layout : L R C LFE Ls Rs Sampling rate : 48.0 kHz Frame rate : 31.250 FPS (1536 SPF) Compression mode : Lossy Stream size : 454 MiB (2%) Title : MVO (Sunnysiders) Language : Ukrainian Service kind : Complete Main Default : No Forced : No Audio #3 ID : 4 Format : AC-3 Format/Info : Audio Coding 3 Commercial name : Dolby Digital Codec ID : A_AC3 Duration : 2 h 21 min Bit rate mode : Constant Bit rate : 448 kb/s Channel(s) : 6 channels Channel layout : L R C LFE Ls Rs Sampling rate : 48.0 kHz Frame rate : 31.250 FPS (1536 SPF) Compression mode : Lossy Stream size : 454 MiB (2%) Title : VO (Колодій Трейлерів) | 18+ Language : Ukrainian Service kind : Complete Main Default : No Forced : No Audio #4 ID : 5 Format : AC-3 Format/Info : Audio Coding 3 Commercial name : Dolby Digital Codec ID : A_AC3 Duration : 2 h 21 min Bit rate mode : Constant Bit rate : 640 kb/s Channel(s) : 6 channels Channel layout : L R C LFE Ls Rs Sampling rate : 48.0 kHz Frame rate : 31.250 FPS (1536 SPF) Compression mode : Lossy Stream size : 648 MiB (3%) Title : Original Language : English Service kind : Complete Main Default : No Forced : No Text #1 ID : 6 Format : UTF-8 Codec ID : S_TEXT/UTF8 Codec ID/Info : UTF-8 Plain Text Duration : 2 h 13 min Bit rate : 2 b/s Count of elements : 82 Stream size : 2.39 KiB (0%) Title : Forced (Цікава Ідея) Language : Ukrainian Default : Yes Forced : No Text #2 ID : 7 Format : UTF-8 Codec ID : S_TEXT/UTF8 Codec ID/Info : UTF-8 Plain Text Duration : 49 min 7 s Bit rate : 3 b/s Count of elements : 46 Stream size : 1.28 KiB (0%) Title : Forced (Sunnysiders) Language : Ukrainian Default : No Forced : No Text #3 ID : 8 Format : UTF-8 Codec ID : S_TEXT/UTF8 Codec ID/Info : UTF-8 Plain Text Duration : 2 h 19 min Bit rate : 71 b/s Count of elements : 1645 Stream size : 73.4 KiB (0%) Title : Full Language : Ukrainian Default : No Forced : No Text #4 ID : 9 Format : UTF-8 Codec ID : S_TEXT/UTF8 Codec ID/Info : UTF-8 Plain Text Duration : 2 h 20 min Bit rate : 53 b/s Count of elements : 2175 Stream size : 55.2 KiB (0%) Title : SDH Language : English Default : No Forced : No Menu 00:00:00.000 : en:Chapter 01 00:04:45.952 : en:Chapter 02 00:08:06.611 : en:Chapter 03 00:11:07.166 : en:Chapter 04 00:15:37.311 : en:Chapter 05 00:20:03.119 : en:Chapter 06 00:25:37.786 : en:Chapter 07 00:31:30.680 : en:Chapter 08 00:36:49.040 : en:Chapter 09 00:41:02.418 : en:Chapter 10 00:48:25.069 : en:Chapter 11 00:51:24.790 : en:Chapter 12 00:59:02.998 : en:Chapter 13 01:04:47.592 : en:Chapter 14 01:09:34.712 : en:Chapter 15 01:15:47.209 : en:Chapter 16 01:22:31.155 : en:Chapter 17 01:24:10.295 : en:Chapter 18 01:30:57.285 : en:Chapter 19 01:37:16.456 : en:Chapter 20 01:43:33.332 : en:Chapter 21 01:45:19.146 : en:Chapter 22 01:48:23.539 : en:Chapter 23 01:51:11.415 : en:Chapter 24 01:58:15.297 : en:Chapter 25 02:11:38.557 : en:Chapter 26 02:15:59.151 : en:Chapter 27 02:21:39.741 : en:Chapter 28
[+] Скриншоты

Всего файлов в раздаче: 1 
Poor.Things.(2023).BDRip.1080p.3xUkr.Eng.mkv21.45 GB

Похожие раздачи по запросу - Бедные-несчастные
Сегодня magnet Бедные-несчастные / Poor Things (2023) BDRip-HEVC 1080p | P, L, A 14.08 GB ↑ 0 ↓ 7
Вчера magnet Бедные-несчастные / Poor Things (2023) BDRip-HEVC 1080p от AllHevc | P | Jaskier 5.45 GB ↑ 1 ↓ 0
2024-03-26 magnet Бедные-несчастные / Бідолашні створіння / Poor Things (2023) BDRemux 1080p | P, L1 | UKR 36.55 GB ↑ 0 ↓ 1
2024-03-17 magnet Бедные-несчастные / Poor Things (2023) BDRemux 1080p | P, L, A 38.56 GB ↑ 0 ↓ 0
2024-03-10 magnet Бедные-несчастные / Poor Things (2023) WEB-DL 2160p | 4K | SDR | P, L, A 22.68 GB ↑ 0 ↓ 0
2024-03-09 magnet Бедные-несчастные / Poor Things (2023) WEB-DL 2160p | 4K | HDR | Dolby Vision Profile 8 | P, L, A 26.62 GB ↑ 0 ↓ 1
2024-03-09 magnet Бедные смеются, богатые плачут [S01] (2024) WEB-DLRip-AVC от Generalfilm | КПК 3.02 GB ↑ 0 ↓ 0

Комментарии


Зарегистрируйтесь чтобы добавить комментарий
Торрент клиент
byTorrent - программа для загрузки торрент-файлов.

Скачать byTorrent.exe (1,5 МБ)

Скачать byTorrent.zip (0,6 МБ)

Поддержи torrent.by
российских рублей
(300 российских рублей это 4$)

Обратная связь rss

End game ©