↑↓torrent.by
Поиск
Логин:  Регистрация
Пароль:

Мейер Лански / Lansky (2021) WEB-DL 1080p | D | Локализованная версия

download Скачать торрент-файл   magnet Магнитная ссылка Размер: 6.28 GB Добавлен: 2024-03-25 05:00
Пиры будут получены из сети DHT
Последний сидер был замечен 2024-03-31 21:56
Информация о фильме Название: Мейер Лански Оригинальное название: Lansky Год выхода: 2021 Жанр: Биография, криминал, триллер, драма Режиссер: Итан Роквей В ролях: Харви Кейтель, Сэм Уортингтон, Джон Магаро, Минка Келли, Дэвид Джеймс Эллиотт, Дэнни А. Абекейзер, Дэвид Кейд, Анна-София Робб, Шэйн МакРей, Джеки Крус О фильме: Мейер Лански — легенда американской мафии, с которым считались все преступные синдикаты и сам Аль Капоне. Ему, конечно, есть, что рассказать. Тот, кто сумеет разговорить скандально известного главу «корпорации убийств», получит эксклюзив на миллион долларов. Но пойдет ли на это Мейер Лански и чьи головы полетят, если он все-таки заговорит? Страна: США Студия: 120dB Films, Above the Clouds Media Group, Caliwood Pictures Продолжительность: 01:59:32 Перевод: Дублированный | Кипарис/КиноПоиск HD Файл Формат: MKV Качество: WEB-DL 1080p Видео: MPEG-4 AVC, 1920x804, 24.000 fps, 6000 Kbps Аудио 1: Russian: E-АС3, 6 ch, 48 kHz, 16 bits, 448 kbps | КиноПоиск HD Аудио 2: Russian: АС3, 5.1 ch, 48 kHz, 16 bits, 448 kbps | КиноПоиск HD Аудио 3: English: AC3, 5.1 ch, 48 kHz, 16 bits, 640 kbps | Оригинал Субтитры: Русские (Forced), английские
[+] Скриншоты
[+] Инфо-файлGeneral Unique ID : 211384184632526071338858923481540968580 (0x9F071CF3D163370584993D9A5CE5C084) Complete name : Lansky.2021.WEB-DL.1080p.mkv Format : Matroska Format version : Version 4 / Version 2 File size : 6.28 GiB Duration : 1 h 59 min Overall bit rate : 7 518 kb/s Encoded date : UTC 2021-11-15 18:24:16 Writing application : mkvmerge v7.3.0 ('Nouages') 64bit built on Oct 22 2014 18:53:34 Writing library : libebml v1.3.0 + libmatroska v1.4.1 Video ID : 1 Format : AVC Format/Info : Advanced Video Codec Format profile : High@L4 Format settings, CABAC : Yes Format settings, RefFrames : 5 frames Codec ID : V_MPEG4/ISO/AVC Duration : 1 h 59 min Bit rate : 6 000 kb/s Width : 1 920 pixels Height : 804 pixels Display aspect ratio : 2.40:1 Frame rate mode : Constant Frame rate : 24.000 FPS Color space : YUV Chroma subsampling : 4:2:0 Bit depth : 8 bits Scan type : Progressive Bits/(Pixel*Frame) : 0.162 Stream size : 4.99 GiB (80%) Writing library : x264 core 157 Encoding settings : cabac=1 / ref=5 / deblock=1:0:0 / analyse=0x3:0x133 / me=umh / subme=10 / psy=1 / psy_rd=1.00:0.00 / mixed_ref=1 / me_range=24 / chroma_me=1 / trellis=2 / 8x8dct=1 / cqm=0 / deadzone=21,11 / fast_pskip=1 / chroma_qp_offset=-2 / threads=25 / lookahead_threads=4 / sliced_threads=0 / nr=0 / decimate=1 / interlaced=0 / bluray_compat=0 / constrained_intra=0 / bframes=8 / b_pyramid=2 / b_adapt=2 / b_bias=0 / direct=3 / weightb=1 / open_gop=0 / weightp=2 / keyint=192 / keyint_min=96 / scenecut=40 / intra_refresh=0 / rc_lookahead=60 / rc=2pass / mbtree=1 / bitrate=6000 / ratetol=1.0 / qcomp=0.60 / qpmin=0 / qpmax=69 / qpstep=4 / cplxblur=20.0 / qblur=0.5 / vbv_maxrate=6600 / vbv_bufsize=9000 / nal_hrd=none / filler=0 / ip_ratio=1.40 / aq=1:1.00 Language : English Default : Yes Forced : No Audio #1 ID : 2 Format : E-AC-3 Format/Info : Enhanced Audio Coding 3 Format settings, Endianness : Big Codec ID : A_EAC3 Duration : 1 h 59 min Bit rate mode : Constant Bit rate : 448 kb/s Channel(s) : 6 channels Channel positions : Front: L C R, Side: L R, LFE Sampling rate : 48.0 kHz Frame rate : 187.500 FPS (256 SPF) Compression mode : Lossy Stream size : 383 MiB (6%) Title : Дубляж (КиноПоиск HD) Language : Russian Service kind : Complete Main Default : Yes Forced : No Audio #2 ID : 3 Format : AC-3 Format/Info : Audio Coding 3 Format settings, Endianness : Big Codec ID : A_AC3 Duration : 1 h 59 min Bit rate mode : Constant Bit rate : 448 kb/s Channel(s) : 6 channels Channel positions : Front: L C R, Side: L R, LFE Sampling rate : 48.0 kHz Frame rate : 31.250 FPS (1536 SPF) Bit depth : 16 bits Compression mode : Lossy Stream size : 383 MiB (6%) Title : Дубляж (КиноПоиск HD) Language : Russian Service kind : Complete Main Default : No Forced : No Audio #3 ID : 4 Format : AC-3 Format/Info : Audio Coding 3 Format settings, Endianness : Big Codec ID : A_AC3 Duration : 1 h 59 min Bit rate mode : Constant Bit rate : 640 kb/s Channel(s) : 6 channels Channel positions : Front: L C R, Side: L R, LFE Sampling rate : 48.0 kHz Frame rate : 31.250 FPS (1536 SPF) Bit depth : 16 bits Compression mode : Lossy Stream size : 546 MiB (9%) Title : Original Language : English Service kind : Complete Main Default : No Forced : No Text #1 ID : 5 Format : UTF-8 Codec ID : S_TEXT/UTF8 Codec ID/Info : UTF-8 Plain Text Duration : 1 h 23 min Bit rate : 0 b/s Count of elements : 11 Stream size : 475 Bytes (0%) Title : Forced Language : Russian Default : Yes Forced : No Text #2 ID : 6 Format : UTF-8 Codec ID : S_TEXT/UTF8 Codec ID/Info : UTF-8 Plain Text Duration : 1 h 50 min Bit rate : 67 b/s Count of elements : 1723 Stream size : 54.3 KiB (0%) Title : Full Language : English Default : No Forced : No Text #3 ID : 7 Format : UTF-8 Codec ID : S_TEXT/UTF8 Codec ID/Info : UTF-8 Plain Text Duration : 1 h 58 min Bit rate : 69 b/s Count of elements : 1974 Stream size : 60.4 KiB (0%) Title : SDH Language : English Default : No Forced : No Menu 00:00:30.700 : en:Chapter 01 00:08:43.075 : en:Chapter 02 00:17:23.325 : en:Chapter 03 00:25:04.283 : en:Chapter 04 00:31:54.325 : en:Chapter 05 00:40:38.867 : en:Chapter 06 00:49:07.241 : en:Chapter 07 00:58:31.325 : en:Chapter 08 01:05:49.450 : en:Chapter 09 01:14:27.241 : en:Chapter 10 01:21:52.159 : en:Chapter 11 01:30:37.241 : en:Chapter 12 01:38:47.117 : en:Chapter 13 01:47:20.783 : en:Chapter 14 01:53:30.909 : en:Chapter 15

Всего файлов в раздаче: 1 
Lansky.2021.WEB-DL.1080p.mkv6.28 GB

Комментарии

Wolf12345b
Фильм очень понравился.Никтогда не нравилось, как играет Сэм Уортингтон, но тут прям в яблочко. Растёт мужик. Фильму даже не знаю, что ставить, субъективно около 8, обективно около 7, 6 очень мало. Пусть будет 6.5/10


Зарегистрируйтесь чтобы добавить комментарий
Торрент клиент
byTorrent - программа для загрузки торрент-файлов.

Скачать byTorrent.exe (1,5 МБ)

Скачать byTorrent.zip (0,6 МБ)

Поддержи torrent.by
российских рублей
(300 российских рублей это 4$)

Обратная связь rss

End game ©