↑↓torrent.by
Поиск
Логин:  Регистрация
Пароль:

Задача трёх тел / 3 Body Problem [S01] (2024) WEB-DLRip-AVC от DoMiNo & селезень | HDrezka Studio

download Скачать торрент-файл   magnet Магнитная ссылка Размер: 5.56 GB Добавлен: 2024-03-25 05:00
Пиры будут получены из сети DHT
Последний сидер был замечен вчера в 15:42
Информация о фильме Название: Задача трёх тел Оригинальное название: 3 Body Problem Год выхода: 2024 Жанр: фантастика, фэнтези, драма, детектив Режиссёр: Минки Спиро, Джереми Подесва, Дерек Цан, Эндрю Стэнтон В ролях: Джесс Хонг, Лиам Каннингэм, Эйса Гонсалес, Джован Адепо, Джон Брэдли, Алекс Шарп, Бенедикт Вонг, Саамер Усмани, Розалинд Чао, Цай Чинь, Джонатан Прайс, Авиталь Львова, Бен Шнетцер, Эдмунд Кингсли, Хосе Пальма О фильме: Ученые по всему миру накладывают на себя руки, сталкиваясь с нарушениями законов физики в их экспериментах. Все это как-то связано с VR-игрой «Три тела», тайной научной ячейкой и инопланетянами. Как именно — разбираются детектив Да Ши (Бенедикт Вонг) и группа физиков — выпускников Оксфорда (Джесс Хун, Джован Адепо, Эйса Гонсалес, Джон Брэдли). Да, еще одна экранизация культовой трилогии Лю Цысиня, но не анимационная, не китайская и не линейная. Взявшиеся за сай-фай Дэвид Бениофф и Д. Б. Уайсс, отдыхавшие со времен «Игры престолов», не только перенесли часть событий в Лондон и другие столицы, а функции главного героя поделили между пятью, но еще использовали сюжеты всего троекнижия разом. Критика в восхищении, хотя местами непростой сюжет романа стал более запутанным. Страна: Великобритания, США, Китай Студия: Bighead Littlehead, Netflix Studios, Plan B Entertainment, Primitive Streak, T-Street Продолжительность: ~00:55:00 серия Перевод: Профессиональный (многоголосый, закадровый) | HDrezka Studio Субтитры: Russian (Forced, Full), English (Forced, SDH) Файл Формат: Matroska Качество: WEB-DLRip-AVC Видео: 1024x436 at 23.976 fps, x264@L4.1, ~1600 kbps Аудио: AC3, 2 ch, ~192 kbps - | Русский | Формат субтитров: softsub (SRT) ***Рип от: -=DoMiNo=-
[+] M/I frame I:855 Avg QP:10.91 size: 56988 frame P:18145 Avg QP:14.31 size: 20361 frame B:68156 Avg QP:15.13 size: 4527 General Complete name : E:3.Body.Problem.S01.2024.WEB-DLRip.x264.seleZen3.Body.Problem.S01E01.WEB-DLRip.x264.seleZen.mkv Format : Matroska Format version : Version 4 File size : 778 MiB Duration : 1 h 0 min Overall bit rate : 1 796 kb/s Frame rate : 23.976 FPS Movie name : 3.Body.Problem.S01E01.WEB-DLRip.x264.seleZen Writing application : Lavf Writing library : Lavf ErrorDetectionType : Per level 1 Attachments : poster.jpg / poster.jpg Language : und Video ID : 1 Format : AVC Format/Info : Advanced Video Codec Format profile : High@L4.1 Format settings : CABAC / 10 Ref Frames Format settings, CABAC : Yes Format settings, Reference : 10 frames Codec ID : V_MPEG4/ISO/AVC Duration : 1 h 0 min Bit rate : 1 600 kb/s Width : 1 024 pixels Height : 436 pixels Display aspect ratio : 2.35:1 Frame rate mode : Constant Frame rate : 23.976 (24000/1001) FPS Color space : YUV Chroma subsampling : 4:2:0 Bit depth : 8 bits Scan type : Progressive Bits/(Pixel*Frame) : 0.149 Stream size : 680 MiB (87%) Writing library : x264 core 164 r3173 4815cca Encoding settings : cabac=1 / ref=10 / deblock=1:-2:-1 / analyse=0x3:0x133 / me=umh / subme=10 / psy=1 / psy_rd=1.03:0.05 / mixed_ref=1 / me_range=32 / chroma_me=1 / trellis=2 / 8x8dct=1 / cqm=0 / deadzone=21,11 / fast_pskip=0 / chroma_qp_offset=-3 / threads=17 / lookahead_threads=3 / sliced_threads=0 / nr=0 / decimate=0 / interlaced=0 / bluray_compat=0 / constrained_intra=0 / bframes=10 / b_pyramid=2 / b_adapt=2 / b_bias=0 / direct=3 / weightb=1 / open_gop=0 / weightp=2 / keyint=240 / keyint_min=24 / scenecut=40 / intra_refresh=0 / rc_lookahead=60 / rc=2pass / mbtree=0 / bitrate=1600 / ratetol=1.0 / qcomp=0.60 / qpmin=0 / qpmax=69 / qpstep=4 / cplxblur=20.0 / qblur=0.5 / vbv_maxrate=50000 / vbv_bufsize=62500 / nal_hrd=none / filler=0 / ip_ratio=1.20 / pb_ratio=1.30 / aq=1:0.90 Default : Yes Forced : No Copyright : -=DoMiNo=- Audio ID : 2 Format : AC-3 Format/Info : Audio Coding 3 Commercial name : Dolby Digital Codec ID : A_AC3 Duration : 1 h 0 min Bit rate mode : Constant Bit rate : 192 kb/s Channel(s) : 2 channels Channel layout : L R Sampling rate : 48.0 kHz Frame rate : 31.250 FPS (1536 SPF) Bit depth : 16 bits Compression mode : Lossy Stream size : 83.2 MiB (11%) Title : HDrezka Studio Language : Russian Service kind : Complete Main Default : Yes Forced : No Text #1 ID : 3 Format : UTF-8 Codec ID : S_TEXT/UTF8 Codec ID/Info : UTF-8 Plain Text Duration : 55 min 23 s Title : fors Language : Russian Default : Yes Forced : No Text #2 ID : 4 Format : UTF-8 Codec ID : S_TEXT/UTF8 Codec ID/Info : UTF-8 Plain Text Duration : 58 min 25 s Title : Russian Language : Russian Default : No Forced : No Text #3 ID : 5 Format : UTF-8 Codec ID : S_TEXT/UTF8 Codec ID/Info : UTF-8 Plain Text Duration : 54 min 50 s Title : English Language : English Default : No Forced : No Text #4 ID : 6 Format : UTF-8 Codec ID : S_TEXT/UTF8 Codec ID/Info : UTF-8 Plain Text Duration : 58 min 30 s Title : English Language : English Default : No Forced : No
Релиз: Присоединяйся к: Кликай на баннеры.

Всего файлов в раздаче: 8 
3.Body.Problem.S01E01.WEB-DLRip.x264.seleZen.mkv778.44 MB
3.Body.Problem.S01E02.WEB-DLRip.x264.seleZen.mkv819.47 MB
3.Body.Problem.S01E03.WEB-DLRip.x264.seleZen.mkv686.39 MB
3.Body.Problem.S01E04.WEB-DLRip.x264.seleZen.mkv566.18 MB
3.Body.Problem.S01E05.WEB-DLRip.x264.seleZen.mkv744.03 MB
3.Body.Problem.S01E06.WEB-DLRip.x264.seleZen.mkv622.20 MB
3.Body.Problem.S01E07.WEB-DLRip.x264.seleZen.mkv750.00 MB
3.Body.Problem.S01E08.WEB-DLRip.x264.seleZen.mkv727.29 MB

Похожие раздачи по запросу - Задача
2024-04-15 magnet Детектив на все руки. Задача со звёздочкой [S03] (2023) WEB-DL 1080p от Files-x 6.64 GB ↑ 0 ↓ 0
2024-04-15 magnet Детектив на все руки. Задача со звёздочкой [S03] (2023) WEB-DLRip-AVC от Files-x 2.25 GB ↑ 0 ↓ 0
2024-04-14 magnet Детектив на все руки. Задача со звёздочкой [S03] (2023) WEB-DLRip от Files-x 2.24 GB ↑ 0 ↓ 0
2024-04-13 magnet Детектив на все руки. Задача со звёздочкой / Сезон: 3 / Серии: 1-4 из 4 [2023, детектив, WEBRip-AVC] от Aleksan55 2.23 GB ↑ 1 ↓ 0
2024-04-03 magnet Задача трёх тел / 3 Body Problem [S01] (2024) WEB-DL-HEVC 2160p | 4K | HDR | HDrezka Studio, LostFilm, TVShows, Red Head Sound 40.50 GB ↑ 0 ↓ 14
2024-04-03 magnet Задача трёх тел / 3 Body Problem [S01] (2024) WEB-DL 2160p | 4K | SDR | P 54.63 GB ↑ 0 ↓ 4
2024-04-02 magnet Задача трёх тел / 3 Body Problem [S01] (2024) WEB-DLRip | LostFilm 6.19 GB ↑ 0 ↓ 0

Комментарии

677
Вот прям от души за Резку, гуманный размер и англ. сабы.


Зарегистрируйтесь чтобы добавить комментарий
Торрент клиент
byTorrent - программа для загрузки торрент-файлов.

Скачать byTorrent.exe (1,5 МБ)

Скачать byTorrent.zip (0,6 МБ)

Поддержи torrent.by
российских рублей
(300 российских рублей это 4$)

Обратная связь rss

End game ©