↑↓torrent.by
Поиск
Логин:  Регистрация
Пароль:

Апостол / Apostle (2018) WEB-DL 2160p | 4K | SDR | P

download Скачать торрент-файл   magnet Магнитная ссылка Размер: 11.94 GB Добавлен: 2024-03-25 11:00
Пиры будут получены из сети DHT
Последний сидер был замечен 2024-04-05 20:59
Информация о фильме Название: Апостол Оригинальное название: Apostle Год выхода: 2018 Жанр: Ужасы, триллер, драма, фэнтези Режиссер: Гарет Эванс В ролях: Дэн Стивенс, Люси Бойнтон, Майкл Шин, Кристин Фросет, Билл Милнер, Марк Льюис Джонс, Элен Риз, Ричард Элфин, Пол Хиггинс, Кэтрин Аарон, Джон Уэлдон, Гарет Пирс, Риз Мередит, Джон Нортон, Росс О’Хеннесси, Иоан Хефин, Риан Морган, Гарет Джон Бэйл О фильме: 1905 год. Дженнифер Ричардсон похищена с целью получения выкупа поселившейся на отдаленном острове религиозной общиной. Последнее время у сектантов плохи дела с урожаем, и их лидер знает, что у Дженнифер имеется богатый отец. Но у девушки также есть и брат Томас, которого все считали погибшим, и который ни перед чем не остановится ради спасения сестры. Страна: Великобритания , США Студия: One More One Productions, Severn Screen, XYZ Films Продолжительность: 02:10:00 Перевод 1: Профессиональный (многоголосый, закадровый) | HDRezka Studio Перевод 2: Профессиональный (многоголосый, закадровый) | NewStudio Файл Формат: MKV Качество: WEB-DL 2160p Видео: MPEG-H HEVC, 3840x2160, 24.000 fps, ~ 11.7 Mbps Аудио 1: AC3, 5.1 ch, 48.0 kHz, 448 kbps | MVO, HDRezka Studio Аудио 2: AC3, 5.1 ch, 48.0 kHz, 384 kbps | MVO, NewStudio Аудио 3: E-AC3, 6 ch, 48.0 kHz, 640 kbps | Original Субтитры: Русские (Full), английские
[+] Скриншоты
[+] Инфо-файлИсточник: Apostle.2018.2160p.WEB.H265-SLOT General Unique ID : 182383201665932183371076982079574098711 (0x8935BA1903402933A53DC32FE961C317) Complete name : Apostle.2018.NF.WEB-DL.2160p.mkv Format : Matroska Format version : Version 4 File size : 11.9 GiB Duration : 2 h 10 min Overall bit rate : 13.1 Mb/s Encoded date : UTC 2024-03-24 18:40:27 Writing application : mkvmerge v7.3.0 ('Nouages') 64bit built on Oct 22 2014 18:53:34 Writing library : libebml v1.3.0 + libmatroska v1.4.1 Video ID : 1 Format : HEVC Format/Info : High Efficiency Video Coding Format profile : Main 10@L5@Main Codec ID : V_MPEGH/ISO/HEVC Duration : 2 h 10 min Bit rate : 11.7 Mb/s Width : 3 840 pixels Height : 2 160 pixels Display aspect ratio : 16:9 Frame rate mode : Constant Frame rate : 24.000 FPS Color space : YUV Chroma subsampling : 4:2:0 Bit depth : 10 bits Bits/(Pixel*Frame) : 0.059 Stream size : 10.6 GiB (89%) Language : English Default : Yes Forced : No Color range : Limited Color primaries : BT.709 Transfer characteristics : BT.709 Matrix coefficients : BT.709 Audio #1 ID : 2 Format : AC-3 Format/Info : Audio Coding 3 Commercial name : Dolby Digital Codec ID : A_AC3 Duration : 2 h 9 min Bit rate mode : Constant Bit rate : 448 kb/s Channel(s) : 6 channels Channel layout : L R C LFE Ls Rs Sampling rate : 48.0 kHz Frame rate : 31.250 FPS (1536 SPF) Compression mode : Lossy Stream size : 415 MiB (3%) Title : MVO (HDRezka Studio) Language : Russian Service kind : Complete Main Default : Yes Forced : No Audio #2 ID : 3 Format : AC-3 Format/Info : Audio Coding 3 Commercial name : Dolby Digital Codec ID : A_AC3 Duration : 2 h 10 min Bit rate mode : Constant Bit rate : 384 kb/s Channel(s) : 6 channels Channel layout : L R C LFE Ls Rs Sampling rate : 48.0 kHz Frame rate : 31.250 FPS (1536 SPF) Compression mode : Lossy Stream size : 357 MiB (3%) Title : MVO (NewStudio) Language : Russian Service kind : Complete Main Default : No Forced : No Audio #3 ID : 4 Format : E-AC-3 Format/Info : Enhanced AC-3 Commercial name : Dolby Digital Plus Codec ID : A_EAC3 Duration : 2 h 10 min Bit rate mode : Constant Bit rate : 640 kb/s Channel(s) : 6 channels Channel layout : L R C LFE Ls Rs Sampling rate : 48.0 kHz Frame rate : 31.250 FPS (1536 SPF) Compression mode : Lossy Stream size : 595 MiB (5%) Title : Original Language : English Service kind : Complete Main Default : No Forced : No Text #1 ID : 5 Format : UTF-8 Codec ID : S_TEXT/UTF8 Codec ID/Info : UTF-8 Plain Text Duration : 2 h 9 min Bit rate : 38 b/s Count of elements : 815 Stream size : 36.8 KiB (0%) Title : Full Language : Russian Default : No Forced : No Text #2 ID : 6 Format : UTF-8 Codec ID : S_TEXT/UTF8 Codec ID/Info : UTF-8 Plain Text Duration : 2 h 1 min Bit rate : 24 b/s Count of elements : 907 Stream size : 21.6 KiB (0%) Title : Full Language : English Default : No Forced : No Text #3 ID : 7 Format : UTF-8 Codec ID : S_TEXT/UTF8 Codec ID/Info : UTF-8 Plain Text Duration : 2 h 8 min Bit rate : 29 b/s Count of elements : 1147 Stream size : 27.8 KiB (0%) Title : SDH Language : English Default : No Forced : No Menu 00:00:00.000 : en:Part 01 02:05:26.450 : en:Credits

Всего файлов в раздаче: 1 
Apostle.2018.NF.WEB-DL.2160p.mkv11.94 GB

Комментарии


Зарегистрируйтесь чтобы добавить комментарий
Торрент клиент
byTorrent - программа для загрузки торрент-файлов.

Скачать byTorrent.exe (1,5 МБ)

Скачать byTorrent.zip (0,6 МБ)

Поддержи torrent.by
российских рублей
(300 российских рублей это 4$)

Обратная связь rss

End game ©