↑↓torrent.by
Поиск
Логин:  Регистрация
Пароль:

Крупный улов / Finestkind (2023) WEB-DLRip-AVC от DoMiNo & селезень | P

download Скачать торрент-файл   magnet Магнитная ссылка Размер: 2.26 GB Добавлен: 2024-03-25 11:00
Пиры будут получены из сети DHT
Последний сидер был замечен 2024-04-12 12:08
Информация о фильме Название: Крупный улов Оригинальное название: Finestkind Год выпуска: 2023 Жанр: триллер, драма, криминал Режиссер: Брайан Хелгеленд / Brian Helgeland В ролях: Бен Фостер, Тоби Уоллес, Дженна Ортега, Томми Ли Джонс, Тим Дейли, Клейн Кроуфорд, Лолита Давидович, Исмаэль Крус Кордова, Аарон Стэнфорд, Меган Литерс О фильме: Том и Чарли, выросшие порознь, принадлежат разным мирам. Но это роковое лето вновь сводит уже взрослых братьев, и они вместе работают на рыболовецком судне. Однажды обстоятельства вынуждают их пойти на сделку с криминальной бандой из Бостона. В эпицентре опасной ситуации оказывается молодая женщина, Мейбел. Развитие событий требует от героев сложных решений, и узы между братьями, друзьями и возлюбленными подвергаются серьезной проверке на прочность. Выпущено: США, Krasnoff / Foster Entertainment, MTV Entertainment Studios, Bosque Ranch Productions, 101 Studios Продолжительность: 02:06:17 Перевод 1: Профессиональный (многоголосый, закадровый) | IVI Перевод 2: Профессиональный (многоголосый, закадровый) | NewStudio | 18+ Субтитры: Русские (Full), английские Файл Формат: Matroska Качество: WEB-DLRip-AVC Видео: 1024x428 at 23.976 fps, x264@L4.1, ~1791 kbps Аудио 1: AC3, 6 ch, ~384 kbps - | Русский | | IVI Аудио 2: AC3, 6 ch, ~384 kbps - | Русский | | NewStudio Формат субтитров: softsub (SRT) ***Рип от: -=DoMiNo=-
[+] M/IGeneral Unique ID : 31276338649962640521837860713938014075 (0x17879A8D1C4C081755DAA88D360BCF7B) Complete name : S:Finestkind.2023.2xMVO.WEB-DLRip.x264.seleZen.mkv Format : Matroska Format version : Version 4 File size : 2.26 GiB Duration : 2 h 6 min Overall bit rate : 2 561 kb/s Frame rate : 23.976 FPS Movie name : Finestkind.2023.2xMVO.WEB-DLRip.x264.seleZen Encoded date : 2024-03-25 07:40:57 UTC Writing application : mkvmerge v83.0 ('Circle Of Friends') 64-bit Writing library : libebml v1.4.5 + libmatroska v1.7.1 Cover : Yes Attachments : cover.jpg / small_cover.jpg Video ID : 1 Format : AVC Format/Info : Advanced Video Codec Format profile : High@L4.1 Format settings : CABAC / 10 Ref Frames Format settings, CABAC : Yes Format settings, Reference : 10 frames Codec ID : V_MPEG4/ISO/AVC Duration : 2 h 6 min Bit rate : 1 791 kb/s Width : 1 024 pixels Height : 428 pixels Display aspect ratio : 2.40:1 Frame rate mode : Constant Frame rate : 23.976 (24000/1001) FPS Color space : YUV Chroma subsampling : 4:2:0 Bit depth : 8 bits Scan type : Progressive Bits/(Pixel*Frame) : 0.170 Stream size : 1.58 GiB (70%) Title : -=DoMiNo=- Writing library : x264 core 164 r3172 -DoMiNo Encoding settings : cabac=1 / ref=10 / deblock=1:-1:-1 / analyse=0x3:0x133 / me=umh / subme=10 / psy=1 / psy_rd=1.01:0.05 / mixed_ref=1 / me_range=32 / chroma_me=1 / trellis=2 / 8x8dct=1 / cqm=0 / deadzone=21,11 / fast_pskip=0 / chroma_qp_offset=-3 / threads=17 / lookahead_threads=3 / sliced_threads=0 / nr=0 / decimate=1 / interlaced=0 / bluray_compat=0 / constrained_intra=0 / bframes=12 / b_pyramid=2 / b_adapt=2 / b_bias=0 / direct=3 / weightb=1 / open_gop=0 / weightp=2 / keyint=250 / keyint_min=23 / scenecut=40 / intra_refresh=0 / rc_lookahead=60 / rc=crf / mbtree=0 / crf=18.0 / qcomp=0.60 / qpmin=0 / qpmax=69 / qpstep=4 / vbv_maxrate=50000 / vbv_bufsize=62500 / crf_max=0.0 / nal_hrd=none / filler=0 / ip_ratio=1.30 / pb_ratio=1.30 / aq=3:0.90 Language : English Default : Yes Forced : No Color range : Limited Matrix coefficients : BT.709 Audio #1 ID : 2 Format : AC-3 Format/Info : Audio Coding 3 Commercial name : Dolby Digital Codec ID : A_AC3 Duration : 2 h 6 min Bit rate mode : Constant Bit rate : 384 kb/s Channel(s) : 6 channels Channel layout : L R C LFE Ls Rs Sampling rate : 48.0 kHz Frame rate : 31.250 FPS (1536 SPF) Compression mode : Lossy Stream size : 347 MiB (15%) Title : MVO - IVI Language : Russian Service kind : Complete Main Default : Yes Forced : No Audio #2 ID : 3 Format : AC-3 Format/Info : Audio Coding 3 Commercial name : Dolby Digital Codec ID : A_AC3 Duration : 2 h 6 min Bit rate mode : Constant Bit rate : 384 kb/s Channel(s) : 6 channels Channel layout : L R C LFE Ls Rs Sampling rate : 48.0 kHz Frame rate : 31.250 FPS (1536 SPF) Compression mode : Lossy Stream size : 347 MiB (15%) Title : MVO -NewStudio | 18+ Language : Russian Service kind : Complete Main Default : No Forced : No Text #1 ID : 4 Format : UTF-8 Codec ID : S_TEXT/UTF8 Codec ID/Info : UTF-8 Plain Text Duration : 1 h 59 min Bit rate : 73 b/s Frame rate : 0.265 FPS Count of elements : 1905 Stream size : 64.9 KiB (0%) Title : Full Language : Russian Default : No Forced : No Text #2 ID : 5 Format : UTF-8 Codec ID : S_TEXT/UTF8 Codec ID/Info : UTF-8 Plain Text Duration : 1 h 59 min Bit rate : 61 b/s Frame rate : 0.292 FPS Count of elements : 2104 Stream size : 54.3 KiB (0%) Title : Full Language : English (US) Default : No Forced : No Text #3 ID : 6 Format : UTF-8 Codec ID : S_TEXT/UTF8 Codec ID/Info : UTF-8 Plain Text Duration : 2 h 5 min Bit rate : 64 b/s Frame rate : 0.317 FPS Count of elements : 2378 Stream size : 59.3 KiB (0%) Title : SDH Language : English (US) Default : No Forced : No Menu 00:00:00.000 : en:Глава 01 00:05:50.000 : en:Глава 02 00:11:40.000 : en:Глава 03 00:17:30.000 : en:Глава 04 00:23:20.000 : en:Глава 05 00:29:10.000 : en:Глава 06 00:35:00.000 : en:Глава 07 00:40:50.000 : en:Глава 08 00:46:40.000 : en:Глава 09 00:52:30.000 : en:Глава 10 00:58:20.000 : en:Глава 11 01:04:10.000 : en:Глава 12 01:10:00.000 : en:Глава 13 01:15:50.000 : en:Глава 14 01:21:40.000 : en:Глава 15 01:27:30.000 : en:Глава 16 01:33:20.000 : en:Глава 17 01:39:10.000 : en:Глава 18 01:45:00.000 : en:Глава 19 01:50:50.000 : en:Глава 20 01:56:40.000 : en:Глава 21 02:02:30.000 : en:Глава 22
Релиз: Присоединяйся к: Кликай на баннеры.

Всего файлов в раздаче: 1 
Finestkind.2023.2xMVO.WEB-DLRip.x264.seleZen.mkv2.26 GB

Похожие раздачи по запросу - Крупный
2024-04-12 magnet Крупный улов / Finestkind (2023) WEB-DL 720p от селезень | D, P 4.01 GB ↑ 0 ↓ 0
2024-04-12 magnet Крупный улов / Finestkind (2023) WEB-DLRip-AVC от DoMiNo & селезень | D, P 2К2.60 GB ↑ 0 ↓ 2
2024-04-12 magnet Крупный улов / Finestkind (2023) WEB-DLRip от New-Team | D | RStudio Sound 1.46 GB ↑ 0 ↓ 0
2024-04-12 magnet Крупный улов / Finestkind (2023) WEB-DL 1080p от New-Team | D, P 1К7.51 GB ↑ 0 ↓ 3
2024-04-12 magnet Крупный улов / Finestkind (2023) WEB-DL 2160p | 4K | SDR | D, P 14.80 GB ↑ 0 ↓ 4
2024-03-26 magnet Крупный улов / Finestkind (2023) WEB-DL 2160p | 4K | SDR | P 14.41 GB ↑ 0 ↓ 0
2024-03-26 magnet Крупный улов / Finestkind (2023) WEB-DLRip от toxics & селезень | P 1.46 GB ↑ 0 ↓ 0

Комментарии


Зарегистрируйтесь чтобы добавить комментарий
Торрент клиент
byTorrent - программа для загрузки торрент-файлов.

Скачать byTorrent.exe (1,5 МБ)

Скачать byTorrent.zip (0,6 МБ)

Поддержи torrent.by
российских рублей
(300 российских рублей это 4$)

Обратная связь rss

End game ©