↑↓torrent.by
Поиск
Логин:  Регистрация
Пароль:

Крупный улов / Finestkind (2023) WEB-DL 1080p от селезень | P

download Скачать торрент-файл   magnet Магнитная ссылка Размер: 6.83 GB Добавлен: 2024-03-25 11:00
Пиры будут получены из сети DHT
Последний сидер был замечен 2024-04-05 06:38
Информация о фильме Название: Крупный улов Оригинальное название: Finestkind Год выхода: 2023 Жанр: триллер, драма, криминал Режиссер: Брайан Хелгеленд В ролях: Бен Фостер, Тоби Уоллес, Дженна Ортега, Томми Ли Джонс, Исмаэль Крус Кордова, Аарон Стэнфорд, Скотти Товар, Тим Дейли, Лолита Давидович, Клейн Кроуфорд О фильме: Два брата оказываются втянуты в сделку с преступным синдикатом Бостона. Страна: США Студия: 101 Studios, Bosque Ranch Productions, Krasnoff / Foster Entertainment, MTV Entertainment Studios Продолжительность: 02:06:17 Перевод: Профессиональный многоголосый (официальный) | IVI Качество: WEB-DL 1080p Видео: MPEG-4 AVC, 1920x1080, 6718 Kbit/s, 23.976 fps Аудио #01: 48 kHz, AC3, 5.1, 384 Kbps | Профессиональный многоголосый | IVI | RUS | Аудио #02: 48 kHz, E-AC3, 5.1, 640 Kbps | Оригинал | ENG | Субтитры: Русские (Full), английские
[+] MIGeneral Unique ID : 111269403257968521760385157551130737299 (0x53B5B522D6F8414C913A30ADFE34FA93) Complete name : H:VideoHFinestkind.2023.AMZN.WEB-DL.1080p.seleZen.mkv Format : Matroska Format version : Version 4 File size : 6.83 GiB Duration : 2 h 6 min Overall bit rate : 7 745 kb/s Frame rate : 23.976 FPS Movie name : Finestkind 2023 from seleZen Encoded date : 2024-03-24 23:41:18 UTC Writing application : mkvmerge v80.0 ('Roundabout') 64-bit Writing library : libebml v1.4.4 + libmatroska v1.7.1 Video ID : 1 Format : AVC Format/Info : Advanced Video Codec Format profile : High@L4 Format settings : CABAC / 4 Ref Frames Format settings, CABAC : Yes Format settings, Reference : 4 frames Codec ID : V_MPEG4/ISO/AVC Duration : 2 h 6 min Bit rate mode : Constant Bit rate : 6 718 kb/s Nominal bit rate : 10 000 kb/s Width : 1 920 pixels Height : 1 080 pixels Display aspect ratio : 16:9 Frame rate mode : Constant Frame rate : 23.976 (24000/1001) FPS Color space : YUV Chroma subsampling : 4:2:0 Bit depth : 8 bits Scan type : Progressive Bits/(Pixel*Frame) : 0.135 Stream size : 5.93 GiB (87%) Language : English (US) Default : Yes Forced : No Color range : Limited Color primaries : BT.709 Transfer characteristics : BT.709 Matrix coefficients : BT.709 Audio #1 ID : 2 Format : AC-3 Format/Info : Audio Coding 3 Commercial name : Dolby Digital Codec ID : A_AC3 Duration : 2 h 6 min Bit rate mode : Constant Bit rate : 384 kb/s Channel(s) : 6 channels Channel layout : L R C LFE Ls Rs Sampling rate : 48.0 kHz Frame rate : 31.250 FPS (1536 SPF) Compression mode : Lossy Stream size : 347 MiB (5%) Title : MVO_IVI Language : Russian Service kind : Complete Main Default : Yes Forced : No Audio #2 ID : 3 Format : E-AC-3 Format/Info : Enhanced AC-3 Commercial name : Dolby Digital Plus Codec ID : A_EAC3 Duration : 2 h 6 min Bit rate mode : Constant Bit rate : 640 kb/s Channel(s) : 6 channels Channel layout : L R C LFE Ls Rs Sampling rate : 48.0 kHz Frame rate : 31.250 FPS (1536 SPF) Compression mode : Lossy Stream size : 578 MiB (8%) Title : Original Language : English (US) Service kind : Complete Main Default : No Forced : No Text #1 ID : 4 Format : UTF-8 Codec ID : S_TEXT/UTF8 Codec ID/Info : UTF-8 Plain Text Duration : 1 h 59 min Bit rate : 73 b/s Frame rate : 0.265 FPS Count of elements : 1905 Stream size : 64.9 KiB (0%) Title : Full Language : Russian Default : No Forced : No Text #2 ID : 5 Format : UTF-8 Codec ID : S_TEXT/UTF8 Codec ID/Info : UTF-8 Plain Text Duration : 1 h 59 min Bit rate : 61 b/s Frame rate : 0.292 FPS Count of elements : 2104 Stream size : 54.3 KiB (0%) Title : Full Language : English (US) Default : No Forced : No Text #3 ID : 6 Format : UTF-8 Codec ID : S_TEXT/UTF8 Codec ID/Info : UTF-8 Plain Text Duration : 2 h 5 min Bit rate : 64 b/s Frame rate : 0.317 FPS Count of elements : 2378 Stream size : 59.3 KiB (0%) Title : SDH Language : English (US) Default : No Forced : No
Релиз: Присоединяйся к: Кликай на баннеры.

Всего файлов в раздаче: 1 
Finestkind.2023.AMZN.WEB-DL.1080p.seleZen.mkv6.83 GB

Похожие раздачи по запросу - Крупный
Сегодня magnet Крупный улов / Finestkind (2023) WEB-DLRip-AVC от DoMiNo & селезень | D, P 2К2.60 GB ↑ 1 ↓ 3
Сегодня magnet Крупный улов / Finestkind (2023) WEB-DLRip от New-Team | D | RStudio Sound 1.46 GB ↑ 0 ↓ 3
Сегодня magnet Крупный улов / Finestkind (2023) WEB-DL 1080p от New-Team | D, P 1К7.51 GB ↑ 0 ↓ 3
Сегодня magnet Крупный улов / Finestkind (2023) WEB-DL 2160p | 4K | SDR | D, P 14.80 GB ↑ 0 ↓ 6
2024-03-26 magnet Крупный улов / Finestkind (2023) WEB-DL 2160p | 4K | SDR | P 14.41 GB ↑ 0 ↓ 2
2024-03-26 magnet Крупный улов / Finestkind (2023) WEB-DLRip от toxics & селезень | P 1.46 GB ↑ 0 ↓ 2
2024-03-26 magnet Крупный улов / Finestkind (2023) WEB-DLRip от ExKinoRay | P 759.18 MB ↑ 0 ↓ 0

Комментарии


Зарегистрируйтесь чтобы добавить комментарий
Торрент клиент
byTorrent - программа для загрузки торрент-файлов.

Скачать byTorrent.exe (1,5 МБ)

Скачать byTorrent.zip (0,6 МБ)

Поддержи torrent.by
российских рублей
(300 российских рублей это 4$)

Обратная связь rss

End game ©