↑↓torrent.by
Поиск
Логин:  Регистрация
Пароль:

Планета бурь [1961, СССР, фантастика, приключения, DVDRip-AVC]

download Скачать торрент-файл   magnet Магнитная ссылка Размер: 1.46 GB Добавлен: il68k 2024-03-25 16:39
Пиры будут получены из сети DHT
Последний сидер был замечен 2024-04-14 22:47
Планета бурь

Страна: СССР Жанр: фантастика, приключения Год выпуска: 1961 Продолжительность: 01:21:49
Режиссёр: Павел Клушанцев
В ролях: Владимир Емельянов, Георгий Жжёнов, Геннадий Вернов, Юрий Саранцев, Георгий Тейх, Кюнна Игнатова
Описание: На планету Венера отправляется первая советская космическая экспедиция из трех кораблей. При подходе к Венере один из кораблей гибнет. Экипажи двух других кораблей, среди которых находятся иностранец и робот «железный Джон», благополучно совершают посадку. Две группы движутся по направлению друг к другу. При этом на орбите остается один корабль с космонавтом на борту. Прежде чем герои найдут друг друга и улетят на Землю, их застигнет извержение вулкана, они погрузятся на морское дно, встретят неведомых животных и достойно перенесут все психологические проблемы малых коллективов в экстремальных ситуациях.

Качество видео: DVDRip-AVC Формат видео: MKV Видео: 720x480 (4:3), 23.976 fps, x264, 2355 kbps Аудио: русский, 48 kHz, AC-3, 2.0 ch, 192 kbps Субтитры: отсутствуют
[+] Дополнительная информацияВ США фильм был контрафактно перемонтирован студией Роджера Кормана с заменой ряда эпизодов и добавлением нескольких новых и выпущен в прокат под названием «Путешествие на доисторическую планету» (Voyage to the Prehistoric Planet, 1965). В титрах советские актёры, оставшиеся в фильме, были указаны под вымышленными англязычными именами (Георгий Жжёнов как «Курт Боден», Геннадий Вернов как «Роберт Чантал» и т. д.). В новых эпизодах были заняты американские актёры Бэзил Рэтбон (эпизоды на станции связи «Луна 7») и Фэйт Домерг (эпизоды, заменившие все эпизоды с Кюнной Игнатовой). В 1968 году в США был выпущен ещё один перемонтированный вариант фильма под названием «Путешествие на планету доисторических женщин» («Voyage to the Planet of Prehistoric Women»). Из монтажа «Путешествия на доисторическую планету» были удалены ранее доснятые эпизоды и вставлены новые, которые вводили в сюжет племя венерианских доисторических амазонок. Режиссёром этой версии был Питер Богданович (под псевдонимом «Дерек Томас»).
[+] Скриншоты
[+] MediaInfo
General
Unique ID                        : 237816417625976553786113428083183092088 (0xB2E9C6A7C1EDEEEFA86EA92DEE568178)
Complete name                    : Planeta.Bur.1961.DVDRip-AVC.mkv
Format                           : Matroska
Format version                   : Version 2
File size                        : 1.46 GiB
Duration                         : 1h 21mn
Overall bit rate                 : 2 549 Kbps
Movie name                       : Планета бурь (1961) 
Encoded date                     : UTC 2013-05-23 05:20:32
Writing application              : mkvmerge v4.9.1 ('Ich will') built on Jul 11 2011 23:53:15
Writing library                  : libebml v1.2.1 + libmatroska v1.1.1

Video
ID                               : 1
Format                           : AVC
Format/Info                      : Advanced Video Codec
Format profile                   : High@L4.1
Format settings, CABAC           : Yes
Format settings, ReFrames        : 10 frames
Codec ID                         : V_MPEG4/ISO/AVC
Duration                         : 1h 21mn
Bit rate                         : 2 355 Kbps
Width                            : 720 pixels
Height                           : 480 pixels
Display aspect ratio             : 4:3
Frame rate                       : 23.976 fps
Standard                         : NTSC
Color space                      : YUV
Chroma subsampling               : 4:2:0
Bit depth                        : 8 bits
Scan type                        : Progressive
Bits/(Pixel*Frame)               : 0.284
Stream size                      : 1.32 GiB (90%)
Title                            : Планета бурь (1961) 
Writing library                  : x264 core 122 r2184 5c85e0a
Encoding settings                : cabac=1 / ref=10 / deblock=1:-2:-2 / analyse=0x3:0x133 / me=umh / subme=10 / psy=1 / psy_rd=1.00:0.05 / mixed_ref=1 / me_range=24 / chroma_me=1 / trellis=2 / 8x8dct=1 / cqm=0 / deadzone=21,11 / fast_pskip=0 / chroma_qp_offset=-3 / threads=12 / sliced_threads=0 / nr=0 / decimate=0 / interlaced=0 / bluray_compat=0 / constrained_intra=0 / bframes=9 / b_pyramid=2 / b_adapt=2 / b_bias=0 / direct=3 / weightb=1 / open_gop=0 / weightp=2 / keyint=250 / keyint_min=23 / scenecut=40 / intra_refresh=0 / rc=2pass / mbtree=0 / bitrate=2355 / ratetol=1.0 / qcomp=0.60 / qpmin=0 / qpmax=69 / qpstep=4 / cplxblur=20.0 / qblur=0.5 / ip_ratio=1.40 / pb_ratio=1.30 / aq=2:1.00
Language                         : Russian
Default                          : Yes
Forced                           : No
Matrix coefficients              : BT.470-6 System B, BT.470-6 System G, BT.601-6 625, BT.1358 625, BT.1700 625 PAL, BT.1700 625 SECAM, IEC 61966-2-4 601

Audio
ID                               : 2
Format                           : AC-3
Format/Info                      : Audio Coding 3
Mode extension                   : CM (complete main)
Codec ID                         : A_AC3
Duration                         : 1h 21mn
Bit rate mode                    : Constant
Bit rate                         : 192 Kbps
Channel(s)                       : 2 channels
Channel positions                : Front: L R
Sampling rate                    : 48.0 KHz
Bit depth                        : 16 bits
Compression mode                 : Lossy
Stream size                      : 112 MiB (8%)
Title                            : 48 kHz, AC-3, 2.0 ch, 192 kbps - original
Language                         : Russian
Default                          : Yes
Forced                           : No

Menu
00:00:00.000                     : ru:Глава 1
00:05:04.834                     : ru:Глава 2
00:13:13.668                     : ru:Глава 3
00:20:10.002                     : ru:Глава 4
00:28:18.969                     : ru:Глава 5
00:35:22.804                     : ru:Глава 6
00:43:40.138                     : ru:Глава 7
00:49:09.972                     : ru:Глава 8
00:59:25.973                     : ru:Глава 9
01:06:28.640                     : ru:Глава 10
01:10:37.474                     : ru:Глава 11
01:19:56.974                     : ru:Глава 12

Всего файлов в раздаче: 1 
Planeta.Bur'.1961.DVDRip-AVC.mkv1.46 GB

Похожие раздачи по запросу - Планета
2024-04-08 magnet BBC: Планета Земля / Planet Earth (2006) HDRip от HQ-ViDEO l Р1 1К8.01 GB ↑ 0 ↓ 0
2024-04-06 magnet BBC: Планета Земля 3 / Planet Earth III [S01] (2023) BDRip 720p | L2 21.17 GB ↑ 0 ↓ 0
2024-03-02 magnet BBC: Планета Земля 3 / Planet Earth III [S01] (2023) BDRip-HEVC 1080p | L2 27.53 GB ↑ 0 ↓ 0
2021-07-30 magnet BBC: Семь миров, одна планета / Seven Worlds, One Planet [S01] (2019) BDRip 1080p | FocusX 32.41 GB ↑ 0 ↓ 0

Комментарии


Зарегистрируйтесь чтобы добавить комментарий
Торрент клиент
byTorrent - программа для загрузки торрент-файлов.

Скачать byTorrent.exe (1,5 МБ)

Скачать byTorrent.zip (0,6 МБ)

Поддержи torrent.by
российских рублей
(300 российских рублей это 4$)

Обратная связь rss

End game ©