↑↓torrent.by
Поиск
Логин:  Регистрация
Пароль:

Беспринципные [S01-03] (2020-2022) WEB-DL 1080p от ExKinoRay

download Скачать торрент-файл   magnet Магнитная ссылка Размер: 47.14 GB Добавлен: 2024-03-25 17:00
Пиры будут получены из сети DHT
Последний сидер был замечен 2024-04-13 13:31
Информация о фильме Название: Беспринципные Год выхода: 2020-2022 Жанр: Комедия, экранизация Режиссер: Роман Прыгунов В ролях: Павел Деревянко, Ингеборга Дапкунайте, Максим Виторган, Оксана Акиньшина, Николай Фоменко, Аглая Тарасова, Павел Табаков, Юрий Колокольников, Надежда Михалкова, Кристина Бабушкина, Мария Шалаева, Дмитрий Муляр, Александр Семёнов (III), Юрий Батурин О фильме: Добро пожаловать на Патриаршие. Смешные и волнующие подробности личной жизни богатых москвичей, которые, как и все, попадают в неловкие ситуации. Правда, ситуации у них не самые обычные... Жена чувствует себя виноватой, познакомившись с любовницей мужа. Муж прикрывается выдуманной дочерью друга. А друг толкает помощника на измену, потому что так хочет жена. И это только начало. Одним словом, неприличные истории о приличных, казалось бы, людях. Страна: Россия Студия: Амедиа Продакшн Продолжительность: 24 х ~ 00:50:00 Язык: Русский Реклама: Отсутствует Файл Формат: MKV Качество: WEB-DL 1080p Видео: MPEG-4 AVC, ~ 5120 Кбит/с, 1920x816, 25 кадр/с 1 сезон Аудио 1: AC3, 6 ch, 384 Кбит/с (с цензурой) RUS Аудио 2: AC3, 6 ch, 384 Кбит/с (без цензуры (18+)) Субтитры: Русские (SDH) Для слабослышащих 2 сезон Аудио 1: AC3, 6 ch, 384 Кбит/с (с цензурой) RUS Аудио 2: AC3, 6 ch, 384 Кбит/с (без цензуры (18+)) Субтитры: Русские (SDH) Для слабослышащих 3 сезон Аудио 1: AC3, 6 ch, 384 Кбит/с (с цензурой) RUS Аудио 2: AC3, 6 ch, 384 Кбит/с (без цензуры (18+)) Субтитры: Русские (SDH) Для слабослышащих
[+] МИ General Unique ID : 215284796132110857012850787676424252201 (0xA1F657F28379244CBB736E1E3CDC2B29) Complete name : G:Besprincipnye.WEB-DL.1080p.ExKinoRayBesprincipnye.S01.2020.WEB-DL.1080p.ExKinoRayBesprincipnye.S01.E01.2020.WEB-DL.1080p.ExKinoRay.mkv Format : Matroska Format version : Version 4 File size : 1.89 GiB Duration : 46 min 3 s Overall bit rate : 5 881 kb/s Encoded date : UTC 2024-03-24 20:38:44 Writing application : mkvmerge v6.9.1 ('Blue Panther') 64bit built on Apr 18 2014 18:23:38 Writing library : libebml v1.3.0 + libmatroska v1.4.1 Video ID : 1 Format : AVC Format/Info : Advanced Video Codec Format profile : High@L4 Format settings : CABAC / 4 Ref Frames Format settings, CABAC : Yes Format settings, Reference frames : 4 frames Codec ID : V_MPEG4/ISO/AVC Duration : 46 min 3 s Bit rate : 5 120 kb/s Width : 1 920 pixels Height : 816 pixels Display aspect ratio : 2.35:1 Frame rate mode : Constant Frame rate : 25.000 FPS Color space : YUV Chroma subsampling : 4:2:0 Bit depth : 8 bits Scan type : Progressive Bits/(Pixel*Frame) : 0.131 Stream size : 1.61 GiB (85%) Writing library : x264 core 152 r2854 e9a5903 Encoding settings : cabac=1 / ref=3 / deblock=1:0:0 / analyse=0x3:0x113 / me=hex / subme=7 / psy=1 / psy_rd=1.00:0.00 / mixed_ref=1 / me_range=16 / chroma_me=1 / trellis=1 / 8x8dct=1 / cqm=0 / deadzone=21,11 / fast_pskip=1 / chroma_qp_offset=-2 / threads=25 / lookahead_threads=4 / sliced_threads=0 / nr=0 / decimate=1 / interlaced=0 / bluray_compat=0 / constrained_intra=0 / bframes=6 / b_pyramid=2 / b_adapt=1 / b_bias=0 / direct=1 / weightb=1 / open_gop=0 / weightp=2 / keyint=50 / keyint_min=26 / scenecut=0 / intra_refresh=0 / rc_lookahead=40 / rc=2pass / mbtree=1 / bitrate=5120 / ratetol=1.0 / qcomp=0.60 / qpmin=0 / qpmax=69 / qpstep=4 / cplxblur=20.0 / qblur=0.5 / vbv_maxrate=7680 / vbv_bufsize=20480 / nal_hrd=none / filler=0 / ip_ratio=1.40 / aq=1:1.00 Language : Russian Default : Yes Forced : No Audio #1 ID : 2 Format : AC-3 Format/Info : Audio Coding 3 Commercial name : Dolby Digital Codec ID : A_AC3 Duration : 46 min 3 s Bit rate mode : Constant Bit rate : 384 kb/s Channel(s) : 6 channels Channel layout : L R C LFE Ls Rs Sampling rate : 48.0 kHz Frame rate : 31.250 FPS (1536 SPF) Compression mode : Lossy Stream size : 127 MiB (7%) Title : Cenzor Language : Russian Service kind : Complete Main Default : Yes Forced : No Audio #2 ID : 3 Format : AC-3 Format/Info : Audio Coding 3 Commercial name : Dolby Digital Codec ID : A_AC3 Duration : 46 min 3 s Bit rate mode : Constant Bit rate : 384 kb/s Channel(s) : 6 channels Channel layout : L R C LFE Ls Rs Sampling rate : 48.0 kHz Frame rate : 31.250 FPS (1536 SPF) Compression mode : Lossy Stream size : 127 MiB (7%) Title : +18 Language : Russian Service kind : Complete Main Default : No Forced : No Text #1 ID : 4 Format : UTF-8 Codec ID : S_TEXT/UTF8 Codec ID/Info : UTF-8 Plain Text Language : Russian Default : No Forced : No Text #2 ID : 5 Format : UTF-8 Codec ID : S_TEXT/UTF8 Codec ID/Info : UTF-8 Plain Text Title : SDH Language : Russian Default : No Forced : No
[+] Скриншоты
Релиз от:

Всего файлов в раздаче: 24 
Besprincipnye.S01.2020.WEB-DL.1080p.ExKinoRay\Besprincipnye.S01.E01.2020.WEB-DL.1080p.ExKinoRay.mkv1.89 GB
Besprincipnye.S01.2020.WEB-DL.1080p.ExKinoRay\Besprincipnye.S01.E02.2020.WEB-DL.1080p.ExKinoRay.mkv2.00 GB
Besprincipnye.S01.2020.WEB-DL.1080p.ExKinoRay\Besprincipnye.S01.E03.2020.WEB-DL.1080p.ExKinoRay.mkv1.91 GB
Besprincipnye.S01.2020.WEB-DL.1080p.ExKinoRay\Besprincipnye.S01.E04.2020.WEB-DL.1080p.ExKinoRay.mkv1.94 GB
Besprincipnye.S01.2020.WEB-DL.1080p.ExKinoRay\Besprincipnye.S01.E05.2020.WEB-DL.1080p.ExKinoRay.mkv2.01 GB
Besprincipnye.S01.2020.WEB-DL.1080p.ExKinoRay\Besprincipnye.S01.E06.2020.WEB-DL.1080p.ExKinoRay.mkv1.78 GB
Besprincipnye.S01.2020.WEB-DL.1080p.ExKinoRay\Besprincipnye.S01.E07.2020.WEB-DL.1080p.ExKinoRay.mkv1.83 GB
Besprincipnye.S01.2020.WEB-DL.1080p.ExKinoRay\Besprincipnye.S01.E08.2020.WEB-DL.1080p.ExKinoRay.mkv1.87 GB
Besprincipnye.S02.2021.WEB-DL.1080p.ExKinoRay\Besprincipnye.S02.E01.2021.WEB-DL.1080p.ExKinoRay.mkv2.42 GB
Besprincipnye.S02.2021.WEB-DL.1080p.ExKinoRay\Besprincipnye.S02.E02.2021.WEB-DL.1080p.ExKinoRay.mkv2.25 GB
Показать все файлы

Похожие раздачи по запросу - Беспринципные
2024-04-19 magnet Беспринципные [04х01-04 из 08] (2024) WEB-DLRip от Files-x 2.83 GB ↑ 0 ↓ 0
2024-04-19 magnet Беспринципные [04x01-04 из 08] (2024) WEBRip-HEVC 1080p от ExKinoRay 7.74 GB ↑ 0 ↓ 0
2024-04-19 magnet Беспринципные [04x01-04 из 08] (2024) WEB-DL 1080p 9.16 GB ↑ 0 ↓ 0
2024-04-19 magnet Беспринципные [04х01-04 из 08] (2024) WEB-DLRip-AVC от Files-x 3.68 GB ↑ 0 ↓ 0
2024-04-19 magnet Беспринципные [04x01-04 из 08] (2024) WEB-DL 720p 5.71 GB ↑ 0 ↓ 0
2024-04-19 magnet Беспринципные [04х01-03 из 08] (2024) WEB-DLRip-AVC от Generalfilm | КПК 730.11 MB ↑ 0 ↓ 0
2024-04-18 magnet Беспринципные [04x01-04 из 08] (2024) WEBRip-HEVC 2160p | 4K | HDR 18.77 GB ↑ 0 ↓ 0

Комментарии


Зарегистрируйтесь чтобы добавить комментарий
Торрент клиент
byTorrent - программа для загрузки торрент-файлов.

Скачать byTorrent.exe (1,5 МБ)

Скачать byTorrent.zip (0,6 МБ)

Поддержи torrent.by
российских рублей
(300 российских рублей это 4$)

Обратная связь rss

End game ©