↑↓torrent.by
Поиск
Логин:  Регистрация
Пароль:

Kingdom Come - Bad Image (1993) FLAC

download Скачать торрент-файл   magnet Магнитная ссылка Размер: 372.70 MB Добавлен: 2024-03-25 17:00
Пиры будут получены из сети DHT
Последний сидер был замечен 2024-03-29 21:48
Исполнитель: Kingdom Come Название: Bad Image Издатель: CD-Maximum CDM 1006-2614 Источник: Диск из личной коллекции Год: 1993 Жанр: Hard-Rock Страна: США Кодек: FLAC Битрейт аудио: Lossless Формат: image+.cue+.log Продолжительность: 00:46:00 Рок-Энциклопедия
[+] Трек-лист01. Passion Departed 02. You're The One 03. Fake Believer 04. Friends 05. Mad Queen 06. Pardon The Difference (But I Like It) 07. Little Wild Thing 08. Can’t Resist 09. Talked Too Much 10. Glove Of Stone 11. Outsider
[+] Отчёт ЕАСExact Audio Copy V1.6 from 23. October 2020 Отчёт EAC об извлечении, выполненном 21. февраля 2024, 17:41 KINGDOM COME / "Bad Image" Дисковод: ASUS SBW-06C1S-U Adapter: 0 ID: 0 Режим чтения : Достоверность Использование точного потока : Да Отключение кэша аудио : Да Использование указателей C2 : Нет Коррекция смещения при чтении : 48 Способность читать области Lead-in и Lead-out : Нет Заполнение пропущенных сэмплов тишиной : Да Удаление блоков с тишиной в начале и конце : Нет При вычислениях CRC использовались нулевые сэмплы : Да Интерфейс : Установленный внешний ASPI-интерфейс Выходной формат : Пользовательский кодировщик Выбранный битрейт : 1024 kBit/s Качество : Высокий Добавление ID3-тега : Нет Утилита сжатия : C:Program Files (x86)Exact Audio CopyFlacflac.exe Дополнительные параметры : -8 -V -T "TITLE=%title%" -T "ARTIST=%artist%" -T "ALBUMARTIST=%albumartist%" -T "ALBUM=%albumtitle%" -T "DATE=%year%" -T "TRACKNUMBER=%tracknr%" -T "TRACKTOTAL=%numtracks%" -T "GENRE=%genre%" -T "COMMENT=%comment%" -T "PERFORMER=%albuminterpret%" -T "COMPOSER=%composer%" %source% -o %dest% TOC извлечённого CD Трек | Старт | Длительность | Начальный сектор | Конечный сектор --------------------------------------------------------------------- 1 | 0:00.00 | 4:51.05 | 0 | 21829 2 | 4:51.05 | 5:20.12 | 21830 | 45841 3 | 10:11.17 | 3:48.58 | 45842 | 62999 4 | 14:00.00 | 4:37.42 | 63000 | 83816 5 | 18:37.42 | 4:12.60 | 83817 | 102776 6 | 22:50.27 | 1:51.08 | 102777 | 111109 7 | 24:41.35 | 3:18.62 | 111110 | 126021 8 | 28:00.22 | 5:02.18 | 126022 | 148689 9 | 33:02.40 | 3:21.62 | 148690 | 163826 10 | 36:24.27 | 5:00.58 | 163827 | 186384 11 | 41:25.10 | 4:35.17 | 186385 | 207026 Характеристики диапазона извлечения и сообщения об ошибках Выбранный диапазон Имя файла D:RazdachiFilesKingdom Come Kingdom Come - 1993 - Bad Image KINGDOM COME - ''Bad Image''.wav Пиковый уровень 100.0 % Скорость извлечения 6.5 X Качество диапазона 100.0 % CRC теста 8CDC36CA CRC копии 8CDC36CA Копирование... OK Ошибок не произошло AccurateRip: сводка Трек 1 : извлечено точно (достоверность 20) (AR v2) Трек 2 : извлечено точно (достоверность 20) (AR v2) Трек 3 : извлечено точно (достоверность 20) (AR v2) Трек 4 : извлечено точно (достоверность 20) (AR v2) Трек 5 : извлечено точно (достоверность 19) (AR v2) Трек 6 : извлечено точно (достоверность 20) (AR v2) Трек 7 : извлечено точно (достоверность 19) (AR v2) Трек 8 : извлечено точно (достоверность 20) (AR v2) Трек 9 : извлечено точно (достоверность 20) (AR v2) Трек 10 : извлечено точно (достоверность 20) (AR v2) Трек 11 : извлечено точно (достоверность 19) (AR v2) Все треки извлечены точно Конец отчёта ---- CUETools DB Plugin V2.1.6 found Submit result: o7fN6dqF66Xl8TctXJB3e2DFH4M- has been confirmed Track | CTDB Status 1 | (262/267) Accurately ripped 2 | (258/267) Accurately ripped, or (2/267) differs in 5672 samples @02:46:31-02:46:32,02:46:73-02:46:74,02:47:50-02:47:51,02:48:37-02:48:38,02:49:56-02:49:57,02:50:12-02:50:13,02:50:23-02:50:24,02:50:33-02:50:34,02:50:54-02:50:55,02:51:10-02:51:11,02:51:62-02:51:63,02:52:19-02:52:20,02:52:29-02:52:30,02:52:61,02:53:06-02:53:07,02:53:59-02:53:60,02:54:15-02:54:16,02:54:25-02:54:26,02:54:36-02:54:37,02:55:65-02:55:66,02:56:01-02:56:02,02:56:22-02:56:23,02:56:53-02:56:54,02:57:09-02:57:10,02:57:62-02:57:63,02:57:72-02:57:73,02:58:39-02:58:40,02:58:49-02:58:50,02:59:48-02:59:49,03:02:11-03:02:12,03:02:63-03:02:64,03:03:41-03:03:42,03:05:17,03:05:38,03:05:59,03:07:45-03:07:46,03:07:55-03:07:56,03:08:33-03:08:34,03:10:30-03:10:31,03:13:57-03:13:58,03:15:12-03:15:13 3 | (264/267) Accurately ripped 4 | (265/267) Accurately ripped 5 | (262/267) Accurately ripped 6 | (264/267) Accurately ripped 7 | (259/267) Accurately ripped 8 | (259/267) Accurately ripped 9 | (259/267) Accurately ripped 10 | (258/267) Accurately ripped 11 | (264/267) Accurately ripped ==== Контрольная сумма отчёта 10E15C8A62BFBBE9FFD9B480F5FD372D95E9283B9FD0E410DCF026E858A39530 ====
Дополнительная информация: Kingdom Come (из английского текста молитвы «Отче наш»: «Да придет Царствие Твое» — «Thy Kingdom come») — американская рок-группа, созданная рок-музыкантом немецкого происхождения Ленни Вольфом в 1987 году в Лос-Анджелесе. Время раздачи: В дневное время.

Всего файлов в раздаче: 13 
KINGDOM COME - ''Bad Image''.cue1.63 kB
KINGDOM COME - ''Bad Image''.flac318.23 MB
KINGDOM COME - ''Bad Image''.log9.65 kB
Scans\Scan 01.jpg5.89 MB
Scans\Scan 02.jpg5.24 MB
Scans\Scan 03.jpg5.70 MB
Scans\Scan 04.jpg6.31 MB
Scans\Scan 05.jpg4.18 MB
Scans\Scan 06.jpg5.27 MB
Scans\Scan 07.jpg4.12 MB
Показать все файлы

Похожие раздачи по запросу - Kingdom
2024-04-11 magnet Королевство зверей / Le règne animal / The Animal Kingdom (2023) BDRip 1080p от Generalfilm | D 9.46 GB ↑ 0 ↓ 1
2024-04-07 magnet Королевство зверей / Le regne animal / The Animal Kingdom (2023) BDRip-HEVC 1080p от AllHevc 2.58 GB ↑ 0 ↓ 0
2024-04-06 magnet Королевство зверей / Le règne animal / The Animal Kingdom (2023) BDRip 720p от селезень | D, P2 6.15 GB ↑ 0 ↓ 0
2024-04-06 magnet Королевство зверей / Le règne animal / The Animal Kingdom (2023) BDRemux 1080p от селезень | D, P2 30.93 GB ↑ 0 ↓ 1
2024-04-05 magnet Королевство зверей / Le règne animal / The Animal Kingdom (2023) BDRip от MegaPeer | D 1.46 GB ↑ 0 ↓ 0
2024-04-05 magnet Королевство зверей / Le règne animal / The Animal Kingdom (2023) HDRip-AVC от DoMiNo & селезень | D 2.10 GB ↑ 0 ↓ 0
2024-04-05 magnet Королевство зверей / Le règne animal / The Animal Kingdom (2023) BDRip 1080p от селезень | D, P2 11.36 GB ↑ 0 ↓ 0

Комментарии


Зарегистрируйтесь чтобы добавить комментарий
Торрент клиент
byTorrent - программа для загрузки торрент-файлов.

Скачать byTorrent.exe (1,5 МБ)

Скачать byTorrent.zip (0,6 МБ)

Поддержи torrent.by
российских рублей
(300 российских рублей это 4$)

Обратная связь rss

End game ©