↑↓torrent.by
Поиск
Логин:  Регистрация
Пароль:

Любовь по случаю / I'm with Lucy (2002) WEB-DL 1080р | D

download Скачать торрент-файл   magnet Магнитная ссылка Размер: 9.58 GB Добавлен: 2024-03-25 17:00
Пиры будут получены из сети DHT
Последний сидер был замечен 2024-03-25 17:00
Информация о фильме Название: Любовь по случаю Оригинальное название: I'm with Lucy Год выхода: 2002 Жанр: Мелодрама, комедия Режиссер: Джон Шерман В ролях: Моника Поттер, Крэйг Бирко, Линда Халаска, Джулианна Николсон, Флора Мартинез, Афемо Омилами, Джон Ханна, Гаэль Гарсиа Берналь, Энтони ЛаПалья, Джон Торми О фильме: Когда Люси узнает о помолвке своего бывшего жениха, она, пытаясь забыть о прошлом, пускается в веселую вереницу безрассудных романов с пятью совершенно разными мужчинами. Эта безумная ситуация разрешается появлением настоящей любви, но сначала героине доведется играть в шахматы с Дагом, затем — заварушка на чердаке с Габриэлем, два концерта Вивальди и два билета на бейсбол с Бобби, солнечное путешествие во Флориду с Люком, просмотр домашнего видео с Барри и в придачу собственные родители на буксире. Люси ждет много смешных и забавных историй. Она то и дело мечется между спальней и такси, осознавая, что мистер Совершенство не всегда мистер Правильность и наоборот... Страна: США, Франция Студия: Fabulous Films, Gaumont Production, Process Productions Продолжительность: 01:30:36 Перевод: Дублированный Файл Кодек: h.264 Качество: WEB-DL 1080р Видео: MPEG-4 AVC, 13600 Кбит/c, 1920x1080, 23.976 Кбит/с Звук: Аудио1 : Русский (AC3, 6 ch, 448 Кбит/с) -профессиональный дублированный Мосфильм-Мастер; Аудио2 : Английский (E-AC3, 6 ch, 640 Кбит/с)-Оригинал; Аудио3 : Немецкий (АС3, 6 ch, 448 Кбит/с)-Оригинал. Субтитры: Английские (full / SDH), немецкие (SDH) / SRT Доп. информация о релизе: Добавлена звуковая дорожка Аудио 1 предварительно мной синхронизированная под этот WEB-DL (1080p) с раздачи на DVDR5 от Boevoy_Svintus -спасибо.
[+] MediaInfoОбщее Уникальный идентификатор : 171304088023466552141281162033529894526 (0x80DFF79F23D8D59EFF07E91A61F4367E) Полное имя : D:фильмы на раздачуЛюбовь по случаю (2002) 1080p.AMZN.WEB-DL.DDP5.1.x264.mkv Формат : Matroska Версия формата : Version 4 Размер файла : 9,58 Гбайт Продолжительность : 1 ч. 30 м. Режим общего битрейта : Переменный Общий поток : 15,1 Мбит/сек Дата кодирования : UTC 2024-03-23 20:42:55 Программа кодирования : mkvmerge v52.0.0 ('Secret For The Mad') 64-bit Библиотека кодирования : libebml v1.4.1 + libmatroska v1.6.2 Обложка : Yes Attachments : cover.jpg Видео Идентификатор : 1 Формат : AVC Формат/Информация : Advanced Video Codec Профиль формата : High@L4 Настройки формата : CABAC / 4 Ref Frames Параметр CABAC формата : Да Параметр RefFrames формата : 4 кадра Идентификатор кодека : V_MPEG4/ISO/AVC Продолжительность : 1 ч. 30 м. Вид битрейта : Переменный Битрейт : 13,6 Мбит/сек Максимальный битрейт : 15,0 Мбит/сек Ширина : 1 920 пикселей Высота : 1 080 пикселей Соотношение сторон : 16:9 Режим частоты кадров : Постоянный Частота кадров : 23,976 (24000/1001) кадра/сек Цветовое пространство : YUV Субдискретизация насыщенности : 4:2:0 Битовая глубина : 8 бит Тип развёртки : Прогрессивная Бит/(Пиксели*Кадры) : 0.274 Размер потока : 8,61 Гбайт (90%) Библиотека кодирования : x264 core 148 r2623 d5b2374 Настройки программы : cabac=1 / ref=4 / deblock=1:-1:-1 / analyse=0x3:0x133 / me=umh / subme=9 / psy=1 / psy_rd=1.00:0.15 / mixed_ref=1 / me_range=24 / chroma_me=1 / trellis=2 / 8x8dct=1 / cqm=0 / deadzone=21,11 / fast_pskip=1 / chroma_qp_offset=-3 / threads=34 / lookahead_threads=5 / sliced_threads=0 / nr=150 / decimate=1 / interlaced=0 / bluray_compat=0 / constrained_intra=0 / bframes=8 / b_pyramid=2 / b_adapt=2 / b_bias=0 / direct=3 / weightb=1 / open_gop=0 / weightp=2 / keyint=120 / keyint_min=61 / scenecut=0 / intra_refresh=0 / rc_lookahead=120 / rc=crf / mbtree=1 / crf=18.0 / qcomp=0.60 / qpmin=0 / qpmax=69 / qpstep=4 / vbv_maxrate=15000 / vbv_bufsize=31250 / crf_max=0.0 / nal_hrd=vbr / filler=0 / ip_ratio=1.40 / aq=3:1.00 Default : Да Forced : Нет Цветовой диапазон : Limited Основные цвета : BT.709 Характеристики трансфера : BT.709 Коэффициенты матрицы : BT.709 Аудио #1 Идентификатор : 2 Формат : AC-3 Формат/Информация : Audio Coding 3 Коммерческое название : Dolby Digital Идентификатор кодека : A_AC3 Продолжительность : 1 ч. 30 м. Вид битрейта : Постоянный Битрейт : 448 Кбит/сек Каналы : 6 каналов Channel layout : L R C LFE Ls Rs Частота : 48,0 КГц Частота кадров : 31,250 кадров/сек (1536 SPF) Метод сжатия : С потерями Размер потока : 290 Мбайт (3%) Заголовок : Dub-(Мосфильм-Мастер) Язык : Russian Service kind : Complete Main Default : Да Forced : Нет Аудио #2 Идентификатор : 3 Формат : E-AC-3 Формат/Информация : Enhanced AC-3 Коммерческое название : Dolby Digital Plus Идентификатор кодека : A_EAC3 Продолжительность : 1 ч. 30 м. Вид битрейта : Постоянный Битрейт : 640 Кбит/сек Каналы : 6 каналов Channel layout : L R C LFE Ls Rs Частота : 48,0 КГц Частота кадров : 31,250 кадров/сек (1536 SPF) Метод сжатия : С потерями Размер потока : 415 Мбайт (4%) Заголовок : EAC3 5.1 640Kbps Язык : English Service kind : Complete Main Default : Нет Forced : Нет Аудио #3 Идентификатор : 4 Формат : AC-3 Формат/Информация : Audio Coding 3 Коммерческое название : Dolby Digital Идентификатор кодека : A_AC3 Продолжительность : 1 ч. 30 м. Вид битрейта : Постоянный Битрейт : 448 Кбит/сек Каналы : 6 каналов Channel layout : L R C LFE Ls Rs Частота : 48,0 КГц Частота кадров : 31,250 кадров/сек (1536 SPF) Метод сжатия : С потерями Размер потока : 290 Мбайт (3%) Заголовок : AC3 5.1 448Kbps (DVD Audio) Язык : German Service kind : Complete Main Default : Нет Forced : Нет Текст #1 Идентификатор : 5 Формат : UTF-8 Идентификатор кодека : S_TEXT/UTF8 Идентификатор кодека/Информация : UTF-8 Plain Text Продолжительность : 1 ч. 24 м. Битрейт : 62 бит/сек Частота кадров : 0,252 кадр/сек Count of elements : 1271 Размер потока : 38,7 Кбайт (0%) Заголовок : English Subs Язык : English Default : Нет Forced : Нет Текст #2 Идентификатор : 6 Формат : UTF-8 Идентификатор кодека : S_TEXT/UTF8 Идентификатор кодека/Информация : UTF-8 Plain Text Продолжительность : 1 ч. 24 м. Битрейт : 65 бит/сек Частота кадров : 0,260 кадр/сек Count of elements : 1313 Размер потока : 40,3 Кбайт (0%) Заголовок : English SDH Язык : English Default : Нет Forced : Нет Текст #3 Идентификатор : 7 Формат : UTF-8 Идентификатор кодека : S_TEXT/UTF8 Идентификатор кодека/Информация : UTF-8 Plain Text Продолжительность : 1 ч. 24 м. Битрейт : 71 бит/сек Частота кадров : 0,174 кадр/сек Count of elements : 886 Размер потока : 44,5 Кбайт (0%) Заголовок : German SDH Язык : German Default : Нет Forced : Нет Меню 00:00:00.000 : :Chapter 1 00:05:09.320 : :Chapter 2 00:14:38.722 : :Chapter 3 00:22:39.536 : :Chapter 4 00:28:17.582 : :Chapter 5 00:37:17.288 : :Chapter 6 00:44:23.964 : :Chapter 7 00:52:24.861 : :Chapter 8 01:00:51.409 : :Chapter 9 01:05:01.659 : :Chapter 10 01:14:19.508 : :Chapter 11 01:22:36.880 : :Chapter 12
[+] Скриншоты
Релиз от:

Всего файлов в раздаче: 1 
Любовь по случаю (2002) 1080p.AMZN.WEB-DL.DDP5.1.x264.mkv9.58 GB

Похожие раздачи по запросу - Любовь
Сегодня magnet Нина. Расплата за любовь [01-08 из 08] (2001) WEBRip-AVC 4.48 GB ↑ 0 ↓ 0
2024-04-14 magnet Боб Марли: Одна любовь / Bob Marley: One Love (2024) WEB-DL 1080p от ExKinoRay | P | Red Head Sound 5.60 GB ↑ 0 ↓ 7
2024-04-14 magnet Боб Марли: Одна любовь / Bob Marley: One Love (2024) WEB-DLRip от New-Team | P | Red Head Sound 1.46 GB ↑ 0 ↓ 1
2024-04-13 magnet Любовь до последнего / Casi muerta / Expiration Date (2023) WEB-DL 1080p | P 4.12 GB ↑ 0 ↓ 3
2024-04-12 magnet Влад Сташевский - Любовь здесь больше не живёт (1994) MP3 80.82 MB ↑ 0 ↓ 0
2024-04-12 magnet Любовь до последнего / Expiration Date / Casi muerta (2023) WEB-DLRip от New-Team | P | Кинопоиск HD 1.46 GB ↑ 0 ↓ 1
2024-04-09 magnet Сколько стоит любовь [S01] (2024) WEB-DLRip-AVC от Files-x 2.40 GB ↑ 0 ↓ 0

Комментарии


Зарегистрируйтесь чтобы добавить комментарий
Торрент клиент
byTorrent - программа для загрузки торрент-файлов.

Скачать byTorrent.exe (1,5 МБ)

Скачать byTorrent.zip (0,6 МБ)

Поддержи torrent.by
российских рублей
(300 российских рублей это 4$)

Обратная связь rss

End game ©