↑↓torrent.by
Поиск
Логин:  Регистрация
Пароль:

Kingdom Come - Too (2000) FLAC

download Скачать торрент-файл   magnet Магнитная ссылка Размер: 326.49 MB Добавлен: 2024-03-25 17:00
Пиры будут получены из сети DHT
Последний сидер был замечен 2024-03-30 23:01
Исполнитель: Kingdom Come Название: Too Издатель: CD-Maximum CDM 1003-1533 Источник: Диск из личной коллекции Год: 2000 Жанр: Hard-Rock Страна: США Кодек: FLAC Битрейт аудио: Lossless Формат: image+.cue+.log Продолжительность: 00:47:39 Рок-Энциклопедия
[+] Трек-лист01. It Ain't So Bad 02. Free Your Mind 03. Waiting 04. Too Late 05. You're My Secret 06. Hey Man 07. Tease 08. Mighty Old Man 09. Tell Me What I've Done 10. Should Have Told You 11. Joe English
[+] Отчёт ЕАСExact Audio Copy V1.6 from 23. October 2020 Отчёт EAC об извлечении, выполненном 21. февраля 2024, 18:58 KINGDOM COME / "Too" Дисковод: ASUS SBW-06C1S-U Adapter: 0 ID: 0 Режим чтения : Достоверность Использование точного потока : Да Отключение кэша аудио : Да Использование указателей C2 : Нет Коррекция смещения при чтении : 48 Способность читать области Lead-in и Lead-out : Нет Заполнение пропущенных сэмплов тишиной : Да Удаление блоков с тишиной в начале и конце : Нет При вычислениях CRC использовались нулевые сэмплы : Да Интерфейс : Установленный внешний ASPI-интерфейс Выходной формат : Пользовательский кодировщик Выбранный битрейт : 1024 kBit/s Качество : Высокий Добавление ID3-тега : Нет Утилита сжатия : C:Program Files (x86)Exact Audio CopyFlacflac.exe Дополнительные параметры : -8 -V -T "TITLE=%title%" -T "ARTIST=%artist%" -T "ALBUMARTIST=%albumartist%" -T "ALBUM=%albumtitle%" -T "DATE=%year%" -T "TRACKNUMBER=%tracknr%" -T "TRACKTOTAL=%numtracks%" -T "GENRE=%genre%" -T "COMMENT=%comment%" -T "PERFORMER=%albuminterpret%" -T "COMPOSER=%composer%" %source% -o %dest% TOC извлечённого CD Трек | Старт | Длительность | Начальный сектор | Конечный сектор --------------------------------------------------------------------- 1 | 0:00.00 | 4:33.55 | 0 | 20529 2 | 4:33.55 | 3:42.57 | 20530 | 37236 3 | 8:16.37 | 5:10.73 | 37237 | 60559 4 | 13:27.35 | 6:10.05 | 60560 | 88314 5 | 19:37.40 | 3:15.67 | 88315 | 103006 6 | 22:53.32 | 4:38.68 | 103007 | 123924 7 | 27:32.25 | 3:23.10 | 123925 | 139159 8 | 30:55.35 | 3:23.40 | 139160 | 154424 9 | 34:19.00 | 3:44.10 | 154425 | 171234 10 | 38:03.10 | 4:49.62 | 171235 | 192971 11 | 42:52.72 | 4:45.68 | 192972 | 214414 Характеристики диапазона извлечения и сообщения об ошибках Выбранный диапазон Имя файла D:RazdachiFilesKingdom Come Kingdom Come - 2000 - Too KINGDOM COME - ''Too''.wav Пиковый уровень 100.0 % Скорость извлечения 6.6 X Качество диапазона 99.9 % CRC теста B1D94E0C CRC копии B1D94E0C Копирование... OK Ошибок не произошло AccurateRip: сводка Трек 1 точность не определена (достоверность 31) , AccurateRip вернул (AR v2) Трек 2 точность не определена (достоверность 31) , AccurateRip вернул (AR v2) Трек 3 точность не определена (достоверность 31) , AccurateRip вернул (AR v2) Трек 4 точность не определена (достоверность 31) , AccurateRip вернул (AR v2) Трек 5 точность не определена (достоверность 31) , AccurateRip вернул (AR v2) Трек 6 точность не определена (достоверность 31) , AccurateRip вернул (AR v2) Трек 7 точность не определена (достоверность 31) , AccurateRip вернул (AR v2) Трек 8 точность не определена (достоверность 31) , AccurateRip вернул (AR v2) Трек 9 точность не определена (достоверность 31) , AccurateRip вернул (AR v2) Трек 10 точность не определена (достоверность 30) , AccurateRip вернул (AR v2) Трек 11 : извлечено точно (достоверность 2) (AR v2) 1 треки скопированы точно 10 треки не удалось проверить на точность Некоторые треки не прошли проверку на точность Конец отчёта ---- CUETools DB Plugin V2.1.6 found Submit result: _OndKK_GqyVXQdvfa7YL4vMdsGI- has been confirmed Track | CTDB Status 1 | (89/89) Accurately ripped 2 | (89/89) Accurately ripped 3 | (89/89) Accurately ripped 4 | (87/89) Accurately ripped 5 | (87/89) Accurately ripped 6 | (88/89) Accurately ripped 7 | (88/89) Accurately ripped 8 | (88/89) Accurately ripped 9 | (87/89) Accurately ripped 10 | (87/89) Accurately ripped 11 | (87/89) Accurately ripped ==== Контрольная сумма отчёта 9D067F6D2D6F8366249E4C87213E40BC0BA5E6EAC88BBCB3E6146543D5B25C5C ====
Дополнительная информация: Kingdom Come (из английского текста молитвы «Отче наш»: «Да придет Царствие Твое» — «Thy Kingdom come») — американская рок-группа, созданная рок-музыкантом немецкого происхождения Ленни Вольфом в 1987 году в Лос-Анджелесе. Время раздачи: В дневное время.

Всего файлов в раздаче: 10 
KINGDOM COME - ''Too''.cue1.46 kB
KINGDOM COME - ''Too''.flac301.65 MB
KINGDOM COME - ''Too''.log9.02 kB
Scans\Scan 01.jpg2.56 MB
Scans\Scan 02.jpg5.65 MB
Scans\Scan 03.jpg2.40 MB
Scans\Scan 04.jpg4.86 MB
Scans\Scan 05.jpg1.88 MB
Scans\Scan 06.jpg3.98 MB
Scans\Scan 07.jpg3.50 MB

Похожие раздачи по запросу - Kingdom
2024-04-11 magnet Королевство зверей / Le règne animal / The Animal Kingdom (2023) BDRip 1080p от Generalfilm | D 9.46 GB ↑ 0 ↓ 3
2024-04-07 magnet Королевство зверей / Le regne animal / The Animal Kingdom (2023) BDRip-HEVC 1080p от AllHevc 2.58 GB ↑ 0 ↓ 0
2024-04-06 magnet Королевство зверей / Le règne animal / The Animal Kingdom (2023) BDRip 720p от селезень | D, P2 6.15 GB ↑ 0 ↓ 0
2024-04-06 magnet Королевство зверей / Le règne animal / The Animal Kingdom (2023) BDRemux 1080p от селезень | D, P2 30.93 GB ↑ 0 ↓ 1
2024-04-05 magnet Королевство зверей / Le règne animal / The Animal Kingdom (2023) BDRip от MegaPeer | D 1.46 GB ↑ 1 ↓ 1
2024-04-05 magnet Королевство зверей / Le règne animal / The Animal Kingdom (2023) HDRip-AVC от DoMiNo & селезень | D 2.10 GB ↑ 0 ↓ 0
2024-04-05 magnet Королевство зверей / Le règne animal / The Animal Kingdom (2023) BDRip 1080p от селезень | D, P2 11.36 GB ↑ 0 ↓ 0

Комментарии


Зарегистрируйтесь чтобы добавить комментарий
Торрент клиент
byTorrent - программа для загрузки торрент-файлов.

Скачать byTorrent.exe (1,5 МБ)

Скачать byTorrent.zip (0,6 МБ)

Поддержи torrent.by
российских рублей
(300 российских рублей это 4$)

Обратная связь rss

End game ©