↑↓torrent.by
Поиск
Логин:  Регистрация
Пароль:

Сёгун / Shôgun / Shogun [01x01-05 из 10] (2024) WEB-DLRip-AVC от DoMiNo & селезень | D, P | Red Head Sound, Jaskier

download Скачать торрент-файл   magnet Магнитная ссылка Размер: 4.88 GB Добавлен: 2024-03-25 17:00
Пиры будут получены из сети DHT
Последний сидер был замечен вчера в 14:09
Информация о фильме Название: Сёгун Оригинальное название: Shôgun / Shogun Год выхода: 2024 Жанр: драма, приключения, военный, история, боевик Режиссер: Фред Туа, Джонатан ван Тюллекен, Шарлотта Брандстром В ролях: Анна Саваи, Хироюки Санада, Космо Джарвис, Таданобу Асано, Юки Кэдоин, Eushin Lee, Томми Бастоу, Хирото Канаи, Хиромото Ида, Jaden Konishi О фильме: Япония, начало XVII века. Английский штурман Джон Блэкторн терпит крушение и попадает в закрытую для европейцев Страну восходящего солнца, где проходит путь от пленника на грани жизни и смерти до правой руки борющегося за власть самурая Торанаги. Страна: США Студия: DNA Films, FX Productions, Michael De Luca Productions Продолжительность: ~01:10:00 Перевод 1: Дублированный | Red Head Sound Перевод 2: Профессиональный (многоголосый, закадровый) | Jaskier Субтитры: Русские (Full), Английские (Forced, Full, SDH) Файл Формат: Matroska Качество: WEB-DLRip-AVC | DSNP | Видеоряд чистый (без хардсаба) Видео: 1024x512 at 24.000 fps, x264@L4.1, ~1800 kbps Аудио 1: AC3, 2 ch, ~192 kbps - | Русский | | Red Head Sound Аудио 2: AC3, 6 ch, ~384 kbps - | Русский | | Jaskier Формат субтитров: softsub (SRT) ► Без Рекламы! ***Рип от: -=DoMiNo=-
[+] M/IGeneral Unique ID : 173598320934492401916664597755890464832 (0x8299D2098E428341464450CBCCCF7840) Complete name : E:vrmShogun.2024.S01.DSNP.WEB-DLRip.x264.seleZenShogun.S01E01.WEB-DLRip.x264.seleZen.mkv Format : Matroska Format version : Version 4 File size : 1.16 GiB Duration : 1 h 9 min Overall bit rate : 2 378 kb/s Frame rate : 24.000 FPS Movie name : Shogun.S01E01.WEB-DLRip.x264.seleZen Encoded date : 2024-03-18 08:07:02 UTC Writing application : mkvmerge v83.0 ('Circle Of Friends') 64-bit Writing library : libebml v1.4.5 + libmatroska v1.7.1 Cover : Yes Attachments : cover.jpg / small_cover.jpg Video ID : 1 Format : AVC Format/Info : Advanced Video Codec Format profile : High@L4.1 Format settings : CABAC / 10 Ref Frames Format settings, CABAC : Yes Format settings, Reference : 10 frames Codec ID : V_MPEG4/ISO/AVC Duration : 1 h 9 min Bit rate : 1 800 kb/s Width : 1 024 pixels Height : 512 pixels Display aspect ratio : 2.000 Frame rate mode : Constant Frame rate : 24.000 FPS Color space : YUV Chroma subsampling : 4:2:0 Bit depth : 8 bits Scan type : Progressive Bits/(Pixel*Frame) : 0.143 Stream size : 900 MiB (76%) Title : -=DoMiNo=- Writing library : x264 core 164 r3179+58M 2d8d988 t_mod_New Encoding settings : cabac=1 / ref=10 / deblock=1:-2:-1 / analyse=0x3:0x133 / me=umh / subme=10 / psy=1 / fade_compensate=0.00 / psy_rd=1.00:0.15 / mixed_ref=1 / me_range=32 / chroma_me=1 / trellis=2 / 8x8dct=1 / cqm=0 / deadzone=21,11 / fast_pskip=0 / chroma_qp_offset=-3 / threads=16 / lookahead_threads=4 / sliced_threads=0 / nr=0 / decimate=0 / interlaced=0 / bluray_compat=0 / constrained_intra=0 / fgo=0 / bframes=10 / b_pyramid=2 / b_adapt=2 / b_bias=0 / direct=3 / weightb=1 / open_gop=0 / weightp=2 / keyint=250 / keyint_min=24 / scenecut=40 / intra_refresh=0 / rc_lookahead=60 / rc=2pass / mbtree=0 / bitrate=1800 / ratetol=1.0 / qcomp=0.70 / qpmin=0:0:0 / qpmax=69:69:69 / qpstep=4 / cplxblur=20.0 / qblur=0.5 / vbv_maxrate=50000 / vbv_bufsize=62500 / nal_hrd=none / filler=0 / ip_ratio=1.20 / pb_ratio=1.30 / aq=1:0.90 / aq-sensitivity=10.00 / aq-factor=1.00:1.00:1.00 / aq2=0 / aq3=0 Language : English Default : Yes Forced : No Color range : Limited Color primaries : BT.709 Transfer characteristics : BT.709 Matrix coefficients : BT.709 Audio #1 ID : 2 Format : AC-3 Format/Info : Audio Coding 3 Commercial name : Dolby Digital Codec ID : A_AC3 Duration : 1 h 9 min Bit rate mode : Constant Bit rate : 192 kb/s Channel(s) : 2 channels Channel layout : L R Sampling rate : 48.0 kHz Frame rate : 31.250 FPS (1536 SPF) Compression mode : Lossy Stream size : 96.0 MiB (8%) Title : Dub - Red Head Sound Language : Russian Service kind : Complete Main Default : Yes Forced : No Audio #2 ID : 3 Format : AC-3 Format/Info : Audio Coding 3 Commercial name : Dolby Digital Codec ID : A_AC3 Duration : 1 h 9 min Bit rate mode : Constant Bit rate : 384 kb/s Channel(s) : 6 channels Channel layout : L R C LFE Ls Rs Sampling rate : 48.0 kHz Frame rate : 31.250 FPS (1536 SPF) Compression mode : Lossy Stream size : 192 MiB (16%) Title : MVO -Jaskier Language : Russian Service kind : Complete Main Default : No Forced : No Text #1 ID : 4 Format : UTF-8 Codec ID : S_TEXT/UTF8 Codec ID/Info : UTF-8 Plain Text Duration : 1 h 6 min Bit rate : 73 b/s Frame rate : 0.190 FPS Count of elements : 757 Stream size : 35.9 KiB (0%) Language : Russian Default : No Forced : No Text #2 ID : 5 Format : UTF-8 Codec ID : S_TEXT/UTF8 Codec ID/Info : UTF-8 Plain Text Duration : 55 min 32 s Bit rate : 27 b/s Frame rate : 0.117 FPS Count of elements : 391 Stream size : 11.0 KiB (0%) Title : Forced Language : English Default : No Forced : No Text #3 ID : 6 Format : UTF-8 Codec ID : S_TEXT/UTF8 Codec ID/Info : UTF-8 Plain Text Duration : 1 h 5 min Bit rate : 45 b/s Frame rate : 0.176 FPS Count of elements : 690 Stream size : 21.6 KiB (0%) Language : English Default : No Forced : No Text #4 ID : 7 Format : UTF-8 Codec ID : S_TEXT/UTF8 Codec ID/Info : UTF-8 Plain Text Duration : 1 h 5 min Bit rate : 55 b/s Frame rate : 0.223 FPS Count of elements : 873 Stream size : 26.7 KiB (0%) Title : SDH Language : English Default : No Forced : No
Релиз: Присоединяйся к: Кликай на баннеры.

Всего файлов в раздаче: 5 
Shogun.S01E01.WEB-DLRip.x264.seleZen.mkv1.16 GB
Shogun.S01E02.WEB-DLRip.x264.seleZen.mkv994.97 MB
Shogun.S01E03.WEB-DLRip.x264.seleZen.mkv899.85 MB
Shogun.S01E04.WEB-DLRip.x264.seleZen.mkv958.22 MB
Shogun.S01E05.WEB-DLRip.x264.seleZen.mkv956.81 MB

Похожие раздачи по запросу - Сёгун
Сегодня magnet Сёгун / Shôgun / Shogun [01x01-08 из 10] (2024) WEB-DLRip | LostFilm 6.46 GB ↑ 0 ↓ 13
Сегодня magnet Сёгун / Shôgun / Shogun [01x01-08 из 10] (2024) WEB-DL 1080p от ExKinoRay | D | Red Head Sound 23.31 GB ↑ 0 ↓ 2
2024-04-11 magnet Сёгун / Shôgun [01x01-08 из 10] (2024) WEB-DLRip | NewComers 4.21 GB ↑ 0 ↓ 0
2024-04-11 magnet Сёгун / Shôgun [01x01-08 из 10] (2024) WEB-DL 1080p от NewComers | P 24.75 GB ↑ 0 ↓ 2
2024-04-10 magnet Сёгун / Shôgun / Shogun [01x01-07 из 10] (2024) WEB-DL-HEVC 2160p | 4K | HDR | HDrezka Studio, LostFilm, Jaskier, TVShows, Кубик в Кубе, NewComers, Red Head Sound, Сербин 49.66 GB ↑ 0 ↓ 2
2024-04-10 magnet Сёгун / Shôgun / Shogun [01x01-07 из 10] (2024) WEB-DL 1080p | HDrezka Studio, LostFilm, Jaskier, TVShows, Кубик в Кубе, NewComers, Red Head Sound, Сербин 27.90 GB ↑ 0 ↓ 7
2024-04-10 magnet Сёгун / Shôgun [01x01-08 из 10] (2024) WEBRip | ViruseProject 5.36 GB ↑ 0 ↓ 1

Комментарии

tabdimal
абсолютно несмотрибельное непотребство.


Зарегистрируйтесь чтобы добавить комментарий
Торрент клиент
byTorrent - программа для загрузки торрент-файлов.

Скачать byTorrent.exe (1,5 МБ)

Скачать byTorrent.zip (0,6 МБ)

Поддержи torrent.by
российских рублей
(300 российских рублей это 4$)

Обратная связь rss

End game ©