↑↓torrent.by
Поиск
Логин:  Регистрация
Пароль:

Не послать ли нам... гонца? (1998) WEB-DLRip 720p от New-Team

download Скачать торрент-файл   magnet Магнитная ссылка Размер: 2.18 GB Добавлен: 2024-03-25 17:00
Пиры будут получены из сети DHT
Последний сидер был замечен 2024-03-26 14:17
Страна: Россия Производство: Театр Михаила Евдокимова Жанр: драма, комедия, приключения, семейный Год выпуска: 1997 Продолжительность: 01:39:05 Перевод: не требуется Оригинальная аудиодорожка: русский Cубтитры: нет Режиссер: Валерий Чиков В ролях: Михаил Евдокимов, Лев Дуров, Ирина Розанова, Любовь Соколова, Саша Комков, Александр Казаков, Александр Кузьмичев, Магомед Льянов, Николай Руманов, Гаджи Исмайлов, Николай Трофимов, Иван Бортник, Ольга Будина, Юрий Дуванов... Подробнее об актерах Описание: Разоренный банкирами фермер едет в Москву к президенту в поисках правды. По дороге он спасает бизнесмена, выручает влюбленного солдата, помогает старикам, попадает «под раздачу» в милиции, а потом пытается въехать в Кремль на «Запорожце». Но правды, естественно, не находит… Исходник: WEB-DL 1080p Тип релиза: WEB-DLRip 720p Контейнер: MKV Видео: 1 080x720 (4:3), 25,000 кадров/сек, x264 core 164 r3182 ~ 2 955 кбит/сек, 0.152 бит/пиксель Аудио: 48 кГц, Dolby Digital AC3 2.0, 192 кбит/сек Раздача от:
[+] MediaInfo Общее Полное имя : Не послать ли нам... гонца1998.WEB-DLRip720p__by_AVP_Studio.mkv Формат : Matroska Версия формата : Version 2 Размер файла : 2,18 Гбайт Продолжительность : 1 ч. 39 м. Общий поток : 3 149 Кбит/сек Частота кадров : 25,000 кадров/сек Дата кодирования : 2024-03-24 13:29:20 UTC Программа кодирования : mkvmerge v6.9.1 ('Blue Panther') 32bit built on Apr 18 2014 18:15:44 Библиотека кодирования : libebml v1.3.0 + libmatroska v1.4.1 Видео Идентификатор : 1 Формат : AVC Формат/Информация : Advanced Video Codec Профиль формата : High@L4.1 Настройки формата : CABAC / 8 Ref Frames Параметр CABAC формата : Да Параметр RefFrames формата : 8 кадров Идентификатор кодека : V_MPEG4/ISO/AVC Продолжительность : 1 ч. 39 м. Битрейт : 2 955 Кбит/сек Ширина : 1 080 пикселей Высота : 720 пикселей Соотношение сторон : 3:2 Режим частоты кадров : Постоянный Частота кадров : 25,000 кадров/сек Цветовое пространство : YUV Субдискретизация насыщенности : 4:2:0 Битовая глубина : 8 бит Тип развёртки : Прогрессивная Бит/(Пиксели*Кадры) : 0.152 Размер потока : 2,00 Гбайт (92%) Библиотека кодирования : x264 core 164 r3182 be4f020 Настройки программы : cabac=1 / ref=8 / deblock=1:-3:-3 / analyse=0x3:0x133 / me=umh / subme=10 / psy=1 / psy_rd=1.00:0.00 / mixed_ref=1 / me_range=32 / chroma_me=1 / trellis=2 / 8x8dct=1 / cqm=0 / deadzone=21,11 / fast_pskip=1 / chroma_qp_offset=-2 / threads=6 / lookahead_threads=1 / sliced_threads=0 / nr=0 / decimate=0 / interlaced=0 / bluray_compat=0 / constrained_intra=0 / bframes=8 / b_pyramid=2 / b_adapt=2 / b_bias=0 / direct=3 / weightb=1 / open_gop=0 / weightp=2 / keyint=250 / keyint_min=25 / scenecut=40 / intra_refresh=0 / rc=2pass / mbtree=0 / bitrate=2955 / ratetol=1.0 / qcomp=0.60 / qpmin=0 / qpmax=69 / qpstep=4 / cplxblur=20.0 / qblur=0.5 / ip_ratio=1.40 / pb_ratio=1.30 / aq=1:1.00 Default : Да Forced : Нет Аудио Идентификатор : 2 Формат : AC-3 Формат/Информация : Audio Coding 3 Коммерческое название : Dolby Digital Идентификатор кодека : A_AC3 Продолжительность : 1 ч. 39 м. Вид битрейта : Постоянный Битрейт : 192 Кбит/сек Каналы : 2 канала Channel layout : L R Частота : 48,0 КГц Частота кадров : 31,250 кадров/сек (1536 SPF) Метод сжатия : С потерями Размер потока : 136 Мбайт (6%) Default : Да Forced : Нет
[+] Скриншоты
[+] Интересные факты Отсылкой к предыдущему фильму Валерия Чикова с участием Михаила Евдокимова служит отчество главного героя - Иван Филимонович. Фильм вышел летом 1998 года, но в нем уже упоминается новая "валюта" того времени, существовавшая ранее но мало применявшаяся и ставшая известной после 17 августа - условные единицы (у.е.)

Всего файлов в раздаче: 1 
Не послать ли нам... гонца1998.WEB-DLRip720p_[New-team]_by_AVP_Studio.mkv2.18 GB

Похожие раздачи по запросу - послать
2024-03-25 magnet Не послать ли нам... гонца? (1998) WEB-DLRip-AVC от New-Team 1.46 GB ↑ 0 ↓ 0

Комментарии


Зарегистрируйтесь чтобы добавить комментарий
Торрент клиент
byTorrent - программа для загрузки торрент-файлов.

Скачать byTorrent.exe (1,5 МБ)

Скачать byTorrent.zip (0,6 МБ)

Поддержи torrent.by
российских рублей
(300 российских рублей это 4$)

Обратная связь rss

End game ©