↑↓torrent.by
Поиск
Логин:  Регистрация
Пароль:

Резня на ферме Сойеров / The Sawyer Massacre (2022) WEB-DL 1080p | L1

download Скачать торрент-файл   magnet Магнитная ссылка Размер: 2.76 GB Добавлен: 2024-03-25 17:00
Пиры будут получены из сети DHT
Последний сидер был замечен 2024-04-02 16:46
Информация о фильме Название: Резня на ферме Сойеров Оригинальное название: The Sawyer Massacre Год выхода: 2022 Режиссер: ужасы, триллер, детектив В ролях: Джордан О’Нил, Скотти Паркин, Ника Лоув, Алисия Джейд, Уильям Инстоун, Оливия Андраде, Джош Скурник О фильме: 30 июня 1965 года. После ужасной трагедии друзья Джимми привозят его в техасскую глубинку, чтобы спастись от городской жизни. Нуждаясь в припасах для своего домика, они заезжают на близлежащую заправку. Там им предлагают поискать припасы в изолированном фермерском доме, но всё оказывается не так, как кажется. Вскоре они обнаруживают, что за ними охотится психопат-каннибал, в распоряжении которого целый арсенал жестоких инструментов. Если кто-то из них переживёт этот кошмар, то он пожалеет об этом... Фанатский приквел к слэшеру 1974 года "Техасская Резня Бензопилой" Страна: Канада Студия: FilmCore Продолжительность: 01:33:43 Перевод: Любительский одноголосый - (datynet) Файл Кодек: H.264 Качество: WEB-DL 1080p | L1 Видео: 1920x1080 (2.40:1), 24.000 fps, MPEG4 Video (H264) High@L4 ~ 4 029 kbps avg Звук: AC3, 192 Kb/s (2 ch)
[+] MediaInfoGeneral Unique ID : 182293035305031535339358872692630848697 (0x89245C8D8A16AF7FA287796A94A584B9) Complete name : D:The Sawyer Massacre (2022).mkv Format : Matroska Format version : Version 4 / Version 2 File size : 2.76 GiB Duration : 1 h 33 min Overall bit rate : 4 213 kb/s Encoded date : UTC 2024-03-25 11:03:25 Writing application : mkvmerge v81.0 ('Milliontown') 64-bit Writing library : libebml v1.4.4 + libmatroska v1.7.1 Video ID : 1 Format : AVC Format/Info : Advanced Video Codec Format profile : High@L4 Format settings : CABAC / 4 Ref Frames Format settings, CABAC : Yes Format settings, ReFrames : 4 frames Codec ID : V_MPEG4/ISO/AVC Duration : 1 h 33 min Bit rate : 4 029 kb/s Width : 1 920 pixels Height : 1 080 pixels Display aspect ratio : 16:9 Frame rate mode : Constant Frame rate : 24.000 FPS Color space : YUV Chroma subsampling : 4:2:0 Bit depth : 8 bits Scan type : Progressive Bits/(Pixel*Frame) : 0.081 Stream size : 2.64 GiB (95%) Default : Yes Forced : No Color range : Limited Color primaries : BT.709 Transfer characteristics : BT.709 Matrix coefficients : BT.709 Audio ID : 2 Format : AC-3 Format/Info : Audio Coding 3 Codec ID : A_AC3 Duration : 1 h 33 min Bit rate mode : Constant Bit rate : 192 kb/s Channel(s) : 2 channels Channel positions : Front: L R Sampling rate : 48.0 kHz Frame rate : 31.250 FPS (1536 SPF) Bit depth : 16 bits Compression mode : Lossy Stream size : 129 MiB (5%) Service kind : Complete Main Default : Yes Forced : No
[+] Скриншоты

Всего файлов в раздаче: 1 
The Sawyer Massacre (2022).mkv2.76 GB

Комментарии


Зарегистрируйтесь чтобы добавить комментарий
Торрент клиент
byTorrent - программа для загрузки торрент-файлов.

Скачать byTorrent.exe (1,5 МБ)

Скачать byTorrent.zip (0,6 МБ)

Поддержи torrent.by
российских рублей
(300 российских рублей это 4$)

Обратная связь rss

End game ©